Статистика раздачи
Размер:  13,79 GB   |    Зарегистрирован:  16 дней   |    Скачан:  0 раз

Полного источника не было: Никогда

   
 

Floyd ®

Пол:
Мужской
Стаж:
6 месяцев 22 дня
Сообщений:
1130

Лови волну! / Surf's Up«Лёд тает - пингвины зажигают»- Страна: США
Production company: Sony Pictures Animation
Жанр: мультфильм, комедия, семейный, спорт
Продолжительность: 01:25:31
Год выпуска: 2007-Перевод : Профессиональный (дублированный)
Перевод : Авторский (одноголосый закадровый) Владимир Королев
Перевод : Профессиональный (дублированный) UKR R5
Русские субтитры: есть
Режиссёр: Эш Браннон, Крис Бак / Ash Brannon, Chris Buck-Роли озвучивали: Шайа ЛаБаф, Джефф Бриджес, Зои Дешанель, Джон Хидер, Джеймс Вудс, Дидрих Бадер, Марио Кантоне, Келли Слэйтер, Роб Мачадо, Сал Масикела-Роли дублировали: Тимати, Евгений Ганелин, Марианна Семенова, Павел Воля, Александр Цекало-Описание:Команда пингвинов-документалистов приглашает зрителей взглянуть за кулисы самого спортивного, драматичного и опасного соревнования серфингистов на планете — Ежегодного Пингвиньего чемпионата мира по серфингу.-
«Лови волну!» (англ. Surf’s Up, 2007) — американский полнометражный анимационный фильм киностудии Sony Pictures Animation. Фильм был номинирован на премию «Оскар» в категории «Лучший полнометражный анимационный фильм» в 2008 году.-Формат: MKV
Видео: AVC 19.2 Mb/s 1920 x 1040 (1.846) 23.976 fps
Аудио 1: Russian: 48 kHz, AC3, 3/2 (L,C,R,l,r) + LFE ch, ~448 kbps avg |Дубляж, Blu-ray CEE|
Аудио 2: Russian: DTS 1509 kb/s 6 channels, 48.0 kHz |Одноголосый, В. Королев|
Аудио 3: Ukrainian: 48 kHz, AC3, 3/2 (L,C,R,l,r) + LFE ch, ~448 kbps avg |Дубляж, R5|
Аудио 4: English: DTS 1509 kb/s 6 channels, 48.0 kHz kbps avg
Субтитры: Russian, English

MI | Log

Log

x264 [info]: frame I:610 Avg QP:18.68 size:235042
x264 [info]: frame P:28893 Avg QP:18.88 size:143266
x264 [info]: frame B:93520 Avg QP:22.26 size: 85617
x264 [info]: consecutive B-frames: 3.1% 2.5% 4.2% 42.7% 11.3% 17.0% 6.3% 12.6% 0.3%
x264 [info]: mb I I16..4: 6.5% 83.4% 10.1%
x264 [info]: mb P I16..4: 0.6% 40.3% 2.1% P16..4: 15.7% 19.2% 5.2% 0.6% 0.0% skip:16.2%
x264 [info]: mb B I16..4: 0.2% 8.4% 0.4% B16..8: 38.7% 21.4% 4.2% direct:12.3% skip:14.5% L0:46.0% L1:38.5% BI:15.5%
x264 [info]: 8x8 transform intra:93.5% inter:56.3%
x264 [info]: direct mvs spatial:99.8% temporal:0.2%
x264 [info]: coded y,uvDC,uvAC intra: 97.4% 97.6% 92.0% inter: 59.9% 65.1% 28.5%
x264 [info]: i16 v,h,dc,p: 30% 24% 7% 38%
x264 [info]: i8 v,h,dc,ddl,ddr,vr,hd,vl,hu: 6% 7% 7% 12% 15% 13% 14% 13% 14%
x264 [info]: i4 v,h,dc,ddl,ddr,vr,hd,vl,hu: 7% 18% 4% 8% 13% 12% 14% 10% 15%
x264 [info]: i8c dc,h,v,p: 64% 12% 10% 14%
x264 [info]: Weighted P-Frames: Y:6.1% UV:4.4%
x264 [info]: ref P L0: 48.3% 12.0% 27.9% 11.4% 0.5% 0.0%
x264 [info]: ref B L0: 89.0% 8.8% 2.2%
x264 [info]: ref B L1: 96.0% 4.0%
x264 [info]: kb/s:19161.14
x264 [total]: encoded 123023 frames, 4.89 fps, 19161.14 kb/s
Format : Matroska
Format version : Version 4
File size : 13.8 GiB
Duration : 1 h 25 min
Overall bit rate : 23.1 Mb/s
Movie name : Surf's Up (2007) [rutracker.org]
Encoded date : UTC 2019-09-23 20:03:55
Writing application : mkvmerge v8.2.0 ('World of Adventure') 64bit
Writing library : libebml v1.3.1 + libmatroska v1.4.2
Video
ID : 1
Format : AVC
Format/Info : Advanced Video Codec
Format profile : High@L4.1
Format settings : CABAC / 4 Ref Frames
Format settings, CABAC : Yes
Format settings, Reference frames : 4 frames
Codec ID : V_MPEG4/ISO/AVC
Duration : 1 h 25 min
Bit rate : 19.2 Mb/s
Width : 1 920 pixels
Height : 1 040 pixels
Display aspect ratio : 1.85:1
Frame rate mode : Constant
Frame rate : 23.976 (24000/1001) FPS
Color space : YUV
Chroma subsampling : 4:2:0
Bit depth : 8 bits
Scan type : Progressive
Bits/(Pixel*Frame) : 0.400
Stream size : 11.4 GiB (83%)
Title : Surf's Up (2007) [rutracker.org]
Writing library : x264 core 157 r2969 d4099dd
Encoding settings : cabac=1 / ref=4 / deblock=1:-3:-3 / analyse=0x3:0x133 / me=umh / subme=11 / psy=1 / psy_rd=1.00:0.05 / mixed_ref=1 / me_range=48 / chroma_me=1 / trellis=2 / 8x8dct=1 / cqm=0 / deadzone=21,11 / fast_pskip=0 / chroma_qp_offset=-3 / threads=12 / lookahead_threads=2 / sliced_threads=0 / nr=0 / decimate=1 / interlaced=0 / bluray_compat=0 / constrained_intra=0 / bframes=8 / b_pyramid=2 / b_adapt=2 / b_bias=0 / direct=3 / weightb=1 / open_gop=0 / weightp=2 / keyint=250 / keyint_min=23 / scenecut=40 / intra_refresh=0 / rc_lookahead=60 / rc=crf / mbtree=0 / crf=19.7 / qcomp=0.60 / qpmin=0 / qpmax=69 / qpstep=4 / vbv_maxrate=50000 / vbv_bufsize=62500 / crf_max=0.0 / nal_hrd=none / filler=0 / ip_ratio=1.40 / pb_ratio=1.30 / aq=3:0.90
Language : English
Default : Yes
Forced : No
Audio #1
ID : 2
Format : AC-3
Format/Info : Audio Coding 3
Commercial name : Dolby Digital
Codec ID : A_AC3
Duration : 1 h 25 min
Bit rate mode : Constant
Bit rate : 448 kb/s
Channel(s) : 6 channels
Channel layout : L R C LFE Ls Rs
Sampling rate : 48.0 kHz
Frame rate : 31.250 FPS (1536 SPF)
Bit depth : 16 bits
Compression mode : Lossy
Stream size : 274 MiB (2%)
Title : DUB Blu-ray CEE
Language : Russian
Service kind : Complete Main
Default : Yes
Forced : No
Audio #2
ID : 3
Format : DTS
Format/Info : Digital Theater Systems
Codec ID : A_DTS
Duration : 1 h 25 min
Bit rate mode : Constant
Bit rate : 1 509 kb/s
Channel(s) : 6 channels
Channel layout : C L R Ls Rs LFE
Sampling rate : 48.0 kHz
Frame rate : 93.750 FPS (512 SPF)
Bit depth : 24 bits
Compression mode : Lossy
Stream size : 923 MiB (7%)
Title : AVO [V. Korolev]
Language : Russian
Default : No
Forced : No
Audio #3
ID : 4
Format : AC-3
Format/Info : Audio Coding 3
Commercial name : Dolby Digital
Codec ID : A_AC3
Duration : 1 h 25 min
Bit rate mode : Constant
Bit rate : 448 kb/s
Channel(s) : 6 channels
Channel layout : L R C LFE Ls Rs
Sampling rate : 48.0 kHz
Frame rate : 31.250 FPS (1536 SPF)
Bit depth : 16 bits
Compression mode : Lossy
Stream size : 274 MiB (2%)
Title : DUB R5
Language : Ukrainian
Service kind : Complete Main
Default : No
Forced : No
Audio #4
ID : 5
Format : DTS
Format/Info : Digital Theater Systems
Codec ID : A_DTS
Duration : 1 h 25 min
Bit rate mode : Constant
Bit rate : 1 509 kb/s
Channel(s) : 6 channels
Channel layout : C L R Ls Rs LFE
Sampling rate : 48.0 kHz
Frame rate : 93.750 FPS (512 SPF)
Bit depth : 24 bits
Compression mode : Lossy
Stream size : 923 MiB (7%)
Title : Original
Language : English
Default : No
Forced : No
Text #1
ID : 6
Format : UTF-8
Codec ID : S_TEXT/UTF8
Codec ID/Info : UTF-8 Plain Text
Duration : 1 h 24 min
Bit rate : 110 b/s
Count of elements : 845
Stream size : 68.8 KiB (0%)
Title : Full
Language : Russian
Default : No
Forced : No
Text #2
ID : 7
Format : UTF-8
Codec ID : S_TEXT/UTF8
Codec ID/Info : UTF-8 Plain Text
Duration : 1 h 24 min
Bit rate : 74 b/s
Count of elements : 1139
Stream size : 46.2 KiB (0%)
Title : Full
Language : English
Default : No
Forced : No
Menu
00:00:00.000 : en:00:00:00.000
00:06:08.159 : en:00:06:08.159
00:12:08.519 : en:00:12:08.519
00:17:43.062 : en:00:17:43.062
00:23:06.176 : en:00:23:06.176
00:27:52.921 : en:00:27:52.921
00:33:00.854 : en:00:33:00.854
00:38:14.417 : en:00:38:14.417
00:44:13.401 : en:00:44:13.401
00:46:43.384 : en:00:46:43.384
00:51:40.014 : en:00:51:40.014
00:55:47.386 : en:00:55:47.386
01:02:08.600 : en:01:02:08.600
01:07:54.946 : en:01:07:54.946
01:12:10.993 : en:01:12:10.993
01:16:24.622 : en:01:16:24.622

MI Old Weird

Format : Matroska
Format version : Version 1
File size : 7.83 GiB
Duration : 1 h 25 min
Overall bit rate : 13.1 Mb/s
Movie name : Surf's Up 2007 BluRay 1080p x264-iLL
Encoded date : UTC 2007-11-15 00:16:12
Writing application : mkvmerge v2.0.2 ('You're My Flame') built on Feb 22 2007 00:05:35
Writing library : libebml v0.7.7 + libmatroska v0.8.1
Attachments : TCCEB.TTF
Video
ID : 1
Format : AVC
Format/Info : Advanced Video Codec
Format profile : High@L5.1
Format settings : CABAC / 11 Ref Frames
Format settings, CABAC : Yes
Format settings, Reference frames : 11 frames
Codec ID : V_MPEG4/ISO/AVC
Duration : 1 h 25 min
Bit rate : 12.7 Mb/s
Width : 1 920 pixels
Height : 1 040 pixels
Display aspect ratio : 1.85:1
Frame rate mode : Constant
Frame rate : 23.976 (23976/1000) FPS
Color space : YUV
Chroma subsampling : 4:2:0
Bit depth : 8 bits
Scan type : Progressive
Bits/(Pixel*Frame) : 0.264
Stream size : 7.41 GiB (95%)
Writing library : x264 core 56 svn-680
Encoding settings : cabac=1 / ref=8 / deblock=1:-6:-6 / analyse=0x3:0x133 / me=umh / subme=7 / brdo=1 / mixed_ref=1 / me_range=16 / chroma_me=1 / trellis=1 / 8x8dct=1 / cqm=2 / deadzone=21,11 / chroma_qp_offset=0 / threads=3 / nr=0 / decimate=1 / mbaff=0 / bframes=3 / b_pyramid=1 / b_adapt=1 / b_bias=0 / direct=3 / wpredb=1 / bime=1 / keyint=250 / keyint_min=25 / scenecut=40(pre) / rc=2pass / bitrate=12655 / ratetol=1.0 / rceq='blurCplx^(1-qComp)' / qcomp=0.60 / qpmin=10 / qpmax=51 / qpstep=4 / cplxblur=20.0 / qblur=0.5 / ip_ratio=1.40 / pb_ratio=1.30 / zones=112909,122268,b=0.02 / aq=1:0.3:15.0
Language : English
Default : Yes
Forced : No
Audio
ID : 2
Format : AC-3
Format/Info : Audio Coding 3
Commercial name : Dolby Digital
Codec ID : A_AC3
Duration : 1 h 25 min
Bit rate mode : Constant
Bit rate : 448 kb/s
Channel(s) : 6 channels
Channel layout : L R C LFE Ls Rs
Sampling rate : 48.0 kHz
Frame rate : 31.250 FPS (1536 SPF)
Bit depth : 16 bits
Compression mode : Lossy
Stream size : 274 MiB (3%)
Language : Russian
Service kind : Complete Main
Default : Yes
Forced : No

Compare

BD

Rip 1080p
Old Rip 1080p Weird

Скриншоты



[cybertorrent.ru].t7405.torrent 
Торрент: Зарегистрирован [ 2019-10-04 05:06 ] · B85997DE4074907C93BF1047D45C07AD913D148F

Скачать .torrent

Скачать

35 KB

Статус: * не проверено
Скачан: 0 раз
Размер: 13,79 GB
terms.php
Профиль ЛС
Показать сообщения:    

Текущее время: 20-Окт 06:04

Часовой пояс: UTC ± 0



Вы не можете начинать темы
Вы не можете отвечать на сообщения
Вы не можете редактировать свои сообщения
Вы не можете удалять свои сообщения
Вы не можете голосовать в опросах
Вы не можете прикреплять файлы к сообщениям
Вы можете скачивать файлы