Статистика раздачи
Размер:  3,16 GB   |    Зарегистрирован:  15 дней   |    Скачан:  0 раз

Полного источника не было: Никогда

   
 

Floyd ®

Пол:
Мужской
Стаж:
6 месяцев 22 дня
Сообщений:
1130

Карьера Рудди
Жанр: драма
Год выпуска: 1934
Продолжительность: 01:24:06
Режиссёр: Владимир Немоляев
В ролях: Дмитрий Консовский, Борис Светлов, Даниил Сагал, Борис Лавров, Вера Янукова, Петер Гольм и др.
Описание: Германия начала 30-х годов XX века. После окончания высшей школы Рудди тщетно пытается устроиться на работу. За денежное вознаграждение он принимает предложение своего товарища-фашиста, участвовать в футбольном матче, который устраивает национальный клуб. Рудди становится популярным среди завсегдатаев клуба. Новые друзья даже пытаются использовать его в качестве штрейкбрехера.
Качество видео: DVB
Формат видео: MKV
Видео: MPEG2 Video, 720(1024)x576 (16:9), 25,000 кадров/сек, 5012 Кбит/сек
Аудио: MPEG Audio, 48,0 КГц, 256 Кбит/сек, 2 канала

MediaInfo

Общее
Уникальный идентификатор : 158594724038377354457011670919133747666 (0x77503B99174F5CEF6FB2FF84D0EF59D2)
Полное имя : D:\Torrent\КАРЬЕРА РУДДИ 16Х9 (Kultura 53).mkv
Формат : Matroska
Версия формата : Version 2
Размер файла : 3,16 Гбайт
Продолжительность : 1 ч. 24 м.
Режим общего битрейта : Переменный
Общий поток : 5375 Кбит/сек
Программа кодирования : Lavf52.64.2
Библиотека кодирования : Lavf52.64.2
Видео
Идентификатор : 1
Формат : MPEG Video
Версия формата : Version 2
Профиль формата : Main@Main
Параметр BVOP формата : Да
Параметр матрицы формата : Выборочная
Параметр GOP формата : M=3, N=15
Структура изображения : Frame
Идентификатор кодека : V_MPEG2
Идентификатор кодека/Информация : MPEG 1 or 2 Video
Продолжительность : 1 ч. 24 м.
Вид битрейта : Переменный
Битрейт : 5012 Кбит/сек
Максимальный битрейт : 15,0 Мбит/сек
Ширина : 720 пикселей
Высота : 576 пикселей
Соотношение сторон : 16:9
Соотношение сторон в оригинале : 16:9
Режим частоты кадров : Постоянный
Частота кадров : 25,000 кадров/сек
Стандарт вещания : PAL
Цветовое пространство : YUV
Субдискретизация насыщенности : 4:2:0
Битовая глубина : 8 бит
Тип развёртки : Чересстрочная
Порядок развёртки : Верхнее поле первое
Метод сжатия : С потерями
Бит/(Пиксели*Кадры) : 0.483
Размер потока : 2,94 Гбайт (93%)
Default : Да
Forced : Нет
Аудио
Идентификатор : 2
Формат : MPEG Audio
Версия формата : Version 1
Профиль формата : Layer 2
Идентификатор кодека : A_MPEG/L2
Идентификатор кодека/Подсказка : MP2
Продолжительность : 1 ч. 24 м.
Вид битрейта : Постоянный
Битрейт : 256 Кбит/сек
Каналы : 2 канала
Частота : 48,0 КГц
Метод сжатия : С потерями
Задержка видео : 21 мс.
Размер потока : 154 Мбайт (5%)
Язык : English
Default : Да
Forced : Нет
[cybertorrent.ru].t7414.torrent 
Торрент: Зарегистрирован [ 2019-10-04 18:23 ] · 8F6C0E25AFF5EED58886F6EAB2C7516CF0011282

Скачать .torrent

Скачать

16 KB

Статус: проверено
Скачан: 0 раз
Размер: 3,16 GB
terms.php
Профиль ЛС
Показать сообщения:    

Текущее время: 20-Окт 06:19

Часовой пояс: UTC ± 0



Вы не можете начинать темы
Вы не можете отвечать на сообщения
Вы не можете редактировать свои сообщения
Вы не можете удалять свои сообщения
Вы не можете голосовать в опросах
Вы не можете прикреплять файлы к сообщениям
Вы можете скачивать файлы