Статистика раздачи
Размер:  4,1 GB   |    Зарегистрирован:  14 дней   |    Скачан:  0 раз

Полного источника не было: Никогда

   
 

Pirat ®

Пол:
Мужской
Стаж:
14 дней
Сообщений:
9

Откуда: Москва

Грязные танцульки / Грязные танцы / Dirty Dancing [Российская прокатная копия]- Страна: США
Жанр: драма, мелодрама, музыка
Год выпуска: 1987
Продолжительность: 01:30:23-Перевод: Профессиональный (многоголосый закадровый) - Компания "Хлопушка", 1992 г.
Субтитры: нет-Режиссер: Эмиль Ардолино / Emile Ardolino
В ролях: Дженнифер Грей, Патрик Суэйзи, Джерри Орбак, Синтия Роудс, Джек Уэстон, Джейн Брукер, Келли Бишоп, Лонни Прайс, Макс Кэнтор, Чарльз ’Хони’ Коулз...-Описание: Лето 1963 года. 17-летняя Фрэнсис по прозвищу Бэби, невинная избалованная девушка из обеспеченной семьи, проводит каникулы с родителями в курортном отеле. Она знакомится с Джонни, красивым профессиональным танцором, искушенным в вопросах жизни и любви.
Словно околдованная сексуальными ритмами и ничем не сдерживаемыми движениями «грязных танцев» в стиле ритм-энд-блюз, Бэби становится ученицей-партнершей Джонни — и в танцах, и в любви.-Контейнер: MPG
Видео: 720x576 (4:3) @ 768x576, 25.000 fps, MPEG-2 Video, ~6112 Kbps, 0.590 bits/pixel
Аудио: Русский, 48.0 KHz, AC3, 2 ch, 256 Kbps

MediaInfo

General
Complete name : Грязные танцульки 1987 Telesync.mpg
Format : MPEG-PS
File size : 4.10 GiB
Duration : 1 h 30 min
Overall bit rate mode : Variable
Overall bit rate : 6 498 kb/s
Video
ID : 224 (0xE0)
Format : MPEG Video
Format version : Version 2
Format profile : Main@Main
Format settings : BVOP
Format settings, BVOP : Yes
Format settings, Matrix : Default
Format settings, GOP : Variable
Format settings, picture structure : Frame
Duration : 1 h 30 min
Bit rate mode : Variable
Bit rate : 6 112 kb/s
Maximum bit rate : 9 400 kb/s
Width : 720 pixels
Height : 576 pixels
Display aspect ratio : 4:3
Frame rate : 25.000 FPS
Standard : PAL
Color space : YUV
Chroma subsampling : 4:2:0
Bit depth : 8 bits
Scan type : Interlaced
Scan order : Top Field First
Compression mode : Lossy
Bits/(Pixel*Frame) : 0.590
Time code of first frame : 00:00:00:00
Time code source : Group of pictures header
GOP, Open/Closed : Closed
Stream size : 3.86 GiB (94%)
Color primaries : BT.601 PAL
Transfer characteristics : BT.470 System B/G
Matrix coefficients : BT.470 System B/G
Audio
ID : 189 (0xBD)-128 (0x80)
Format : AC-3
Format/Info : Audio Coding 3
Commercial name : Dolby Digital
Muxing mode : DVD-Video
Duration : 1 h 30 min
Bit rate mode : Constant
Bit rate : 256 kb/s
Channel(s) : 2 channels
Channel layout : L R
Sampling rate : 48.0 kHz
Frame rate : 31.250 FPS (1536 SPF)
Compression mode : Lossy
Stream size : 166 MiB (4%)
Service kind : Complete Main

Скриншоты

[cybertorrent.ru].t7479.torrent 
Торрент: Зарегистрирован [ 2019-10-05 16:36 ] · B48A69078728044386D14804E99A9A71D0752BB8

Скачать .torrent

Скачать

21 KB

Статус: проверено
Скачан: 0 раз
Размер: 4,1 GB
terms.php
Профиль ЛС
Показать сообщения:    

Текущее время: 20-Окт 05:40

Часовой пояс: UTC ± 0



Вы не можете начинать темы
Вы не можете отвечать на сообщения
Вы не можете редактировать свои сообщения
Вы не можете удалять свои сообщения
Вы не можете голосовать в опросах
Вы не можете прикреплять файлы к сообщениям
Вы можете скачивать файлы