Статистика раздачи
Размер:  3,19 GB   |    Зарегистрирован:  3 месяца 6 дней   |    Скачан:  0 раз

Полного источника не было: Никогда

 
   
 
 

Виктория ®

Пол:
Не указан
Стаж:
3 месяца 6 дней
Сообщений:
419

Мальчишки есть мальчишки / Boys Be
Год выпуска: 2000
Страна: Япония
Жанр: романтика, комедия, повседневность, сёнэн
Продолжительность: 13 эп. х 24 мин.
Перевод: одноголосый, женский, Лурье
Субтитры: нет НИКАКИХ!
Хардсаб: есть(кодер)
Режиссер: Симода Масами
Описание: Есть много аниме про любовь - как удачных - так и не очень. И только одна вещь - "Boys Be..." - именно про то, как эта самая любовь зарождается.
Это сериал про те смутные и противоречивые чувства, которые "ещё не любовь" - но и "уже не симпатия" - про трогательные в своей наивности первые прикосновения жаждущих любви душ друг к другу, про первые поступки в мире взрослых чувств, про осознание своего чувства и своей чувственности.
Но вы не найдёте в "Boys Be..." ни жарких любовных сцен, ни измен и предательства, ни любви до гроба и самопожертвования - всё это отдано на откуп более серьёзным любовным драмам. А нам же предлагают посмотреть за зарождением самого чувства - нет, точнее, сразу нескольких разных чувств любви - сразу у нескольких главных героев.

Эпизоды:

01. Cherry Blossoms
02. Memorial Essence
03. After the Kiss
04. Bittersweet Rain
05. Feeling Blue
06. Baseball Lovers
07. Wind-chime
08. Swallow
09. Leaves
10. Solitary Cross
11. First Snowfall
12. End to Beginning
13. Let it Be
Качество: DVDRip
Формат: AVI
Видео: XVID 640x480 29.97fps Bit rate 1190 Kbps Bits/(Pixel*Frame) 0.129
Аудио: MP3 44100Hz stereo 128Kbps, 2 потока - русский, японский

отчет Media Info

General
Complete name : ***\BB.TV.01-13_[ru_jp]_DvdRip.avi
Format : AVI
Format/Info : Audio Video Interleave
File size : 245 MiB
Duration : 23mn 19s
Overall bit rate : 1 467 Kbps
Writing application : VirtualDubModRus 1.5.10.2 (build 2540/release)
Writing library : VirtualDubMod build 2540/release
Video
ID : 0
Format : MPEG-4 Visual
Format profile : Advanced Simple@L5
Format settings, BVOP : 2
Format settings, QPel : No
Format settings, GMC : No warppoints
Format settings, Matrix : Default (H.263)
Codec ID : XVID
Codec ID/Hint : XviD
Duration : 23mn 19s
Bit rate : 1 194 Kbps
Width : 640 pixels
Height : 480 pixels
Display aspect ratio : 4:3
Frame rate : 29.970 fps
Color space : YUV
Chroma subsampling : 4:2:0
Bit depth : 8 bits
Scan type : Progressive
Compression mode : Lossy
Bits/(Pixel*Frame) : 0.130
Stream size : 199 MiB (81%)
Writing library : XviD 1.1.2 (UTC 2006-11-01)
Audio #1
ID : 1
Format : MPEG Audio
Format version : Version 1
Format profile : Layer 3
Mode : Joint stereo
Mode extension : MS Stereo
Codec ID : 55
Codec ID/Hint : MP3
Duration : 23mn 19s
Bit rate mode : Constant
Bit rate : 128 Kbps
Channel(s) : 2 channels
Sampling rate : 44.1 KHz
Compression mode : Lossy
Stream size : 21.4 MiB (9%)
Alignment : Split accross interleaves
Interleave, duration : 33 ms (1.00 video frame)
Interleave, preload duratio : 500 ms
Audio #2
ID : 2
Format : MPEG Audio
Format version : Version 1
Format profile : Layer 3
Mode : Joint stereo
Mode extension : MS Stereo
Codec ID : 55
Codec ID/Hint : MP3
Duration : 23mn 19s
Bit rate mode : Constant
Bit rate : 128 Kbps
Channel(s) : 2 channels
Sampling rate : 44.1 KHz
Compression mode : Lossy
Stream size : 21.4 MiB (9%)
Alignment : Split accross interleaves
Interleave, duration : 33 ms (1.00 video frame)
Interleave, preload duratio : 500 ms

Скриншоты и постеры

[cybertorrent.ru].t753.torrent 
Торрент: Зарегистрирован [ 2018-02-15 22:25 ] · 0A9AD1FFEA10B2AC53D55656C6D950ADD1FEC514

Скачать .torrent

Скачать

17 KB

Статус: проверено
Скачан: 0 раз
Размер: 3,19 GB
Профиль [ЛС]
Показать сообщения:    

Текущее время: 22-Май 00:06

Часовой пояс: UTC ± 0



Вы не можете начинать темы
Вы не можете отвечать на сообщения
Вы не можете редактировать свои сообщения
Вы не можете удалять свои сообщения
Вы не можете голосовать в опросах
Вы не можете прикреплять файлы к сообщениям
Вы можете скачивать файлы