Статистика раздачи
Размер:  1,36 GB   |    Зарегистрирован:  3 месяца 8 дней   |    Скачан:  0 раз

Полного источника не было: Никогда

 
   
 
 

lopster ®

Пол:
Не указан
Стаж:
3 месяца 8 дней
Сообщений:
612

Контракт на любовь
Жанр: Комедия, мелодрама
Год выпуска: 2008
Продолжительность: 01:33:59
Режиссёры: Елизавета Лижнина, Илья Хотиненко
В ролях: Марат Башаров, Ольга Сутулова, Евгений Стычкин, Илья Бутковский, Михаил Ефремов, Александра Фатхи, Юрий Чурсин, Валерий Ярёменко, Юлия Рутберг, Валерий Баринов, Алексей Панин, Ольга Хохлова, Юлия Зимина, Александр Фисенко, Сергей Легостаев, Алексей Агрызков, Александр Терешко, Наталья Михайлова, и др.
Описание: Главный герой Илья Ракитин - звезда российского кино. Он много зарабатывает и очень много тратит, потому что привык брать от жизни лучшее. Всё должно быть высшего качества - от модного автомобиля и квартиры до телефона и бытовой техники.
Слишком много поклонниц и слишком мало свободного времени, чтобы задуматься и понять: у него нет самого главного - чувств высшего качества. Но однажды он вынужден остановиться. Цепь авантюрных событий, в которые он оказался втянут, приводит к кардинальной перемене всей его жизни. За солидный гонорар, предложенный неизвестной женщиной, он взялся четыре дня играть роль отца шестилетнего мальчика.
Эти четыре дня изменили Илью. Он начал испытывать чувства, в которые никогда не верил - любовь, ответственность, готовность жертвовать собой.
Срок ангажемента истек, и мы должны увидеть стал ли он другим человеком или сыграл очередную роль за деньги.
Sample
Качество видео: DVDRip
Формат видео: AVI
Видео: 720x384 (1.88:1), 25 fps, DivX Codec 6.4 ~1810 kbps avg, 0.26 bit/pixel
Аудио: 48 kHz, AC3 Dolby Digital, 2/0 (L,R) ch, ~256 kbps

AviInfo

File: Контракт_на_любовь_2008_DVDRip_[torrents.ru].avi
FileSize: 1395.79 Mb ( 1 463 590 912 bytes )
Play length: 01:33:59.600 (140990 frames)
Subtitles: Not Present
Video: 720x384 (1.88:1), 25 fps, DivX Codec 6.4 ~1810 kbps avg, 0.26 bit/pixel
Audio: 48 kHz, AC3 Dolby Digital, 2/0 (L,R) ch, ~256 kbps

MediaInfo

Общее
Полное имя : D:\Контракт_на_любовь_2008_DVDRip_[torrents.ru].avi
Формат : AVI
Формат/Информация : Audio Video Interleave
Размер файла : 1,36 Гбайт
Продолжительность : 1 ч. 33 м.
Общий поток : 2076 Кбит/сек
Программа кодирования : VirtualDubModRus 1.5.10.2 (build 2542/release)
Библиотека кодирования : VirtualDubMod build 2542/release
Видео
Идентификатор : 0
Формат : MPEG-4 Visual
Параметр BVOP формата : 1
Параметр QPel формата : Нет
Параметр GMC формата : Без точки перехода
Параметр матрицы формата : Default (H.263)
Идентификатор кодека : DX50
Идентификатор кодека/Подсказка : DivX 5
Продолжительность : 1 ч. 33 м.
Битрейт : 1810 Кбит/сек
Ширина : 720 пикселей
Высота : 384 пикселя
Соотношение сторон : 1,85:1
Частота кадров : 25,000 кадров/сек
Цветовое пространство : YUV
Субдискретизация насыщенности : 4:2:0
Битовая глубина : 8 бит
Тип развёртки : Прогрессивная
Метод сжатия : С потерями
Бит/(Пиксели*Кадры) : 0.262
Размер потока : 1,19 Гбайт (87%)
Библиотека кодирования : DivX 6.4.0 (UTC 2006-10-03)
Аудио
Идентификатор : 1
Формат : AC-3
Формат/Информация : Audio Coding 3
Расширение режима : CM (complete main)
Параметр Endianness формата : Big
Идентификатор кодека : 2000
Продолжительность : 1 ч. 33 м.
Вид битрейта : Постоянный
Битрейт : 256 Кбит/сек
Каналы : 2 канала
Расположение каналов : Front: L R
Частота : 48,0 КГц
Битовая глубина : 16 бит
Метод сжатия : С потерями
Размер потока : 172 Мбайт (12%)
Выравнивание : Разделение по промежуткам
Продолжительность промежутка : 40 мс. (1,00 видеокадр)
Время предзагрузки промежутка : 500 мс.

Скриншот c названием фильма

Скриншоты

В рамках ликвидации приватных раздач, торрент-файл перезагружен 25-Май-17 03:52.

http://cybertorrent.ru/viewtopic.php?t=5403618-В файле был обнаружен -

"Режим смешивания: Сжатый битовый поток",

Общее
Полное имя : F:\Kontrakt.na.lubov.2008.DivX.DVDRip.avi
Формат : AVI
Формат/Информация : Audio Video Interleave
Размер файла : 1,36 Гбайт
Продолжительность : 1 ч. 33 м.
Общий поток : 2077 Кбит/сек
Программа кодирования : Nandub v1.0rc2
Библиотека кодирования : Nandub build 1852/release
Видео
Идентификатор : 0
Формат : MPEG-4 Visual
Настройки формата : BVOP1
Параметр BVOP формата : 1
Параметр QPel формата : Нет
Параметр GMC формата : Без точки перехода
Параметр матрицы формата : Default (H.263)
Режим смешивания : Сжатый битовый поток
Идентификатор кодека : DX50
Идентификатор кодека/Подсказка : DivX 5
Продолжительность : 1 ч. 33 м.
Битрейт : 1811 Кбит/сек
Номинальный битрейт : 1128 Кбит/сек
Ширина : 720 пикселей
Высота : 384 пикселя
Соотношение сторон : 1,85:1
Частота кадров : 25,000 кадров/сек
Цветовое пространство : YUV
Субдискретизация насыщенности : 4:2:0
Битовая глубина : 8 бит
Тип развёртки : Прогрессивная
Метод сжатия : С потерями
Бит/(Пиксели*Кадры) : 0.262
Размер потока : 1,19 Гбайт (87%)
Библиотека кодирования : DivX 6.4.0 (UTC 2006-10-03)
Аудио
Идентификатор : 1
Формат : AC-3
Формат/Информация : Audio Coding 3
Параметр Endianness формата : Big
Идентификатор кодека : 2000
Продолжительность : 1 ч. 33 м.
Вид битрейта : Постоянный
Битрейт : 256 Кбит/сек
Каналы : 2 канала
Расположение каналов : Front: L R
Частота : 48,0 КГц
Частота кадров : 31,250 кадров/сек (1536 SPF)
Битовая глубина : 16 бит
Метод сжатия : С потерями
Размер потока : 172 Мбайт (12%)
Выравнивание : Разделение по промежуткам
Продолжительность промежутка : 40 мс. (1,00 видеокадр)
Время предзагрузки промежутка : 500 мс.
ServiceKind/String : Complete Main
который был устранён с помощью "MPEG4 Modifier" - http://cybertorrent.ru/viewtopic.php?t=4452634. Затем файл был пропущен через "VirtualDubMod", и переименован - "Kontrakt.na.lubov.2008.DivX.DVDRip.avi" --> "Контракт_на_любовь_2008_DVDRip_[torrents.ru].avi".-Оформление отредактировано, для приведения в соответствие с действующими правилами раздела "Наше кино" - http://cybertorrent.ru/viewtopic.php?t=2593632 .-Просьба к ранее скачавшим, скачать новый торрент-файл, затем скачать обновлённый файл, и присоединиться к раздаче - http://cybertorrent.ru/viewtopic.php?t=3473252 .
[cybertorrent.ru].t76.torrent 
Торрент: Зарегистрирован [ 2018-02-15 13:57 ] · 4ABB071D2A0763BC454F7E5F7DB4288A65E44DDB

Скачать .torrent

Скачать

14 KB

Статус: проверено
Скачан: 0 раз
Размер: 1,36 GB
Профиль [ЛС]
Показать сообщения:    

Текущее время: 23-Май 16:46

Часовой пояс: UTC ± 0



Вы не можете начинать темы
Вы не можете отвечать на сообщения
Вы не можете редактировать свои сообщения
Вы не можете удалять свои сообщения
Вы не можете голосовать в опросах
Вы не можете прикреплять файлы к сообщениям
Вы можете скачивать файлы