Статистика раздачи
Размер:  4,38 GB   |    Зарегистрирован:  5 месяцев 7 дней   |    Скачан:  0 раз

Полного источника не было: Никогда

 
   
 
 

antikvar ®

Пол:
Не указан
Стаж:
5 месяцев 7 дней
Сообщений:
50

Человек-паук / Spider-Man: The New Animated Series- Оригинальное название: Spider-Man: The New Animated Series
Русское название: Человек-паук
Год выпуска: 2003
Страна: CША
Жанр: Экранизация комиксов, приключения, комедия
Продолжительность: 20 минут [серия]
Перевод:

  • Профессиональный (полное дублирование) по заказу СТС,
  • Профессиональный (многоголосый закадровый) по заказу Мьюзик Трейд,
  • Профессиональный (многоголосый закадровый) по заказу Видеосервис (только 7 серия),
    Производство: MainFrame Entertainment
    Режиссёр: Себастьян Бродин, Брэндон Виетти
    Роли озвучивали: Нил Патрик Харрис, Лиза Лоб, Йен Зиринг, Майкл Дорн, Джеффри Комбс и другие.
    Описание: После укуса радиоактивного паука Питер Паркер обнаруживает, что обладает паучьей суперсилой. Надеясь, что эти новые возможности помогут ему разбогатеть и прославиться, он забывает о других и, отказавшись помочь полицейскому в поимке убегающего преступника становится причиной смерти своего дяди Бена. Осознав всю глубину своего падения, он решает использовать свои способности для борьбы с преступностью и становится супергероем Человеком-пауком. Питеру приходится совмещать борьбу с суперзлодеями со своей личной жизнью, работой фотокорреспондентом в Дейли Багл и противостоянием с главным редактором, утверждающим, что Человек-паук — это преступник, который должен сидеть в тюрьме. Если предположить, что сериал вписывается во вселенную фильма, то это происходит где-то между первым и вторым (так как Норман Озборн мертв). Здесь Питер окончил среднюю школу и уже учится в Государственном Университете (хотя в фильмах он был принят в Колумбийский университет). Тем не менее ему все так же трудно совмещать жизнь супер героя с школьной жизнью, и его роман с Мэри Джейн Уотсон. Почти во всех сериях Гарри жаждет отомстить Человеку-Пауку.- -Спасибо Great Dragon за рип с оригинальных DVD, UTAS, HPotter, Goldsword за запись озвучки телеканала СТС и SerGoLeOne за предоставление озвучки Мьюзик Трейд, Видеосервис и синхронизацию дорожек.-Сэмпл: Скачать по ссылке
    Качество: DVDRip-AVC
    Формат: MKV
    Видео кодек: h264
    Аудио кодек: AC3
    Видео: MPEG4 Video (H264) 720x480 (291:160) 23.976fps ~2300Kbps
    Аудио:
  • Аудио 1 (СТС): Dolby AC3 48000Hz stereo 192Kbps,
  • Аудио 2 (Мьюзик Трейд): Dolby AC3 48000Hz stereo 192Kbps (в 7 серии Видеосервис),
  • Аудио 3 (английская): AAC 48000Hz 6ch ~120Kbps
    Скриншоты:
    -

    Список серий:

    01. The Party
    02. Sword of Shikata
    03. Law of the Jungle
    04. Keeping Secrets
    05. Tight Squeeze
    06. Head Over Heels
    07. When Sparks Fly
    08. Spider-Man Dis-Sabled
    09. Royal Scam
    10. Heroes and Villains
    11. Flash Memory
    12. Mind Games (1)
    13. Mind Games (2)

    Media Info

    Код:General
    Unique ID : 196408444958908782770455772261557746089 (0x93C2E3FAEEF1C994AEE3D67AC82839A9)
    Complete name : X:\Мультсериалы\Spider-Man - The New Animated Series (DVDRip-AVC l 480p l SerGoLeOne)\01. The Party.mkv
    Format : Matroska
    Format version : Version 2
    File size : 410 MiB
    Duration : 21mn 21s
    Overall bit rate : 2 681 Kbps
    Movie name : Spider-Man: The New Animated Series (2003) #01: Heroes and Villains. DVDRip x264 [gd]
    Encoded date : UTC 2016-12-30 23:55:48
    Writing application : mkvmerge v5.4.0 ('Piper') built on Mar 10 2012 13:34:39
    Writing library : libebml v1.2.3 + libmatroska v1.3.0
    DURATION : 00:21:21.984000000
    NUMBER_OF_FRAMES : 60093
    NUMBER_OF_BYTES : 40350419
    _STATISTICS_WRITING_APP : mkvmerge v7.4.0 ('Circles') 32bit built on Dec 12 2014 12:10:09
    _STATISTICS_WRITING_DATE_UT : 2015-02-05 14:02:51
    _STATISTICS_TAGS : BPS DURATION NUMBER_OF_FRAMES NUMBER_OF_BYTES
    Video
    ID : 1
    Format : AVC
    Format/Info : Advanced Video Codec
    Format profile : High@L3.1
    Format settings, CABAC : Yes
    Format settings, ReFrames : 11 frames
    Codec ID : V_MPEG4/ISO/AVC
    Duration : 21mn 21s
    Width : 720 pixels
    Height : 480 pixels
    Display aspect ratio : 16:9
    Original display aspect rat : 16:9
    Frame rate mode : Constant
    Frame rate : 23.976 fps
    Color space : YUV
    Chroma subsampling : 4:2:0
    Bit depth : 8 bits
    Scan type : Progressive
    Writing library : x264 core 144 r2525 40bb568
    Encoding settings : cabac=1 / ref=12 / deblock=1:-2:-2 / analyse=0x3:0x113 / me=umh / subme=10 / psy=1 / psy_rd=1.00:0.25 / mixed_ref=1 / me_range=16 / chroma_me=1 / trellis=2 / 8x8dct=1 / cqm=0 / deadzone=6,6 / fast_pskip=1 / chroma_qp_offset=-4 / threads=6 / lookahead_threads=1 / sliced_threads=0 / nr=0 / decimate=0 / interlaced=0 / bluray_compat=0 / constrained_intra=0 / bframes=5 / b_pyramid=1 / b_adapt=2 / b_bias=0 / direct=3 / weightb=1 / open_gop=0 / weightp=2 / keyint=250 / keyint_min=23 / scenecut=40 / intra_refresh=0 / rc_lookahead=50 / rc=crf / mbtree=1 / crf=17.0 / qcomp=0.80 / qpmin=0 / qpmax=69 / qpstep=4 / ip_ratio=1.10 / aq=1:1.20
    Language : English
    Default : Yes
    Forced : No
    Audio #1
    ID : 2
    Format : AC-3
    Format/Info : Audio Coding 3
    Mode extension : CM (complete main)
    Format settings, Endianness : Big
    Codec ID : A_AC3
    Duration : 21mn 21s
    Bit rate mode : Constant
    Bit rate : 192 Kbps
    Channel(s) : 2 channels
    Channel positions : Front: L R
    Sampling rate : 48.0 KHz
    Compression mode : Lossy
    Stream size : 29.3 MiB (7%)
    Title : СТС
    Language : Russian
    Default : Yes
    Forced : No
    Audio #2
    ID : 3
    Format : AC-3
    Format/Info : Audio Coding 3
    Mode extension : CM (complete main)
    Format settings, Endianness : Big
    Codec ID : A_AC3
    Duration : 21mn 21s
    Bit rate mode : Constant
    Bit rate : 192 Kbps
    Channel(s) : 2 channels
    Channel positions : Front: L R
    Sampling rate : 48.0 KHz
    Compression mode : Lossy
    Stream size : 29.3 MiB (7%)
    Title : Мьюзик Трейд
    Language : Russian
    Default : No
    Forced : No
    Audio #3
    ID : 4
    Format : AAC
    Format/Info : Advanced Audio Codec
    Format profile : LC
    Codec ID : A_AAC
    Duration : 21mn 21s
    Channel(s) : 6 channels
    Channel positions : Front: L C R, Side: L R, LFE
    Sampling rate : 48.0 KHz
    Compression mode : Lossy
    Delay relative to video : 9ms
    Title : Original
    Language : English
    Default : No
    Forced : No
    -ссылка на альтернативные раздачи-ВНИМАНИЕ! Существует 5 озвучек на этот мультсериал: СТС, Видеосервис, Интерфильм, Мьюзик Трейд и пиратская с проф. актёрами! 2 найдено: СТС и Мьюзик Трейд. На лицензионных кассетах "Видеосервис" выходила собственная озвучка с тем же актёром за главного героя, она будет добавлена в последствии, как дадут кассеты на оцифровку. "Мьюзик Трейд" выпустили 12 серий, одну серию потеряли, на эту серию есть озвучка "Видеосервис".
    Разыскиваются кассеты с озвучкой Интерфильм:

    Разыскиваются кассеты с пиратской озвучкой от COLOS-VIDEO:
    [cybertorrent.ru].t760.torrent 
    Торрент: Зарегистрирован [ 2018-02-15 22:25 ] · 25A7B8A32B4083B70D686D0E5A429827C5D37C73

    Скачать .torrent

    Скачать

    12 KB

    Статус: проверено
    Скачан: 0 раз
    Размер: 4,38 GB
  • Профиль [ЛС]
    Показать сообщения:    

    Текущее время: 23-Июл 02:11

    Часовой пояс: UTC ± 0



    Вы не можете начинать темы
    Вы не можете отвечать на сообщения
    Вы не можете редактировать свои сообщения
    Вы не можете удалять свои сообщения
    Вы не можете голосовать в опросах
    Вы не можете прикреплять файлы к сообщениям
    Вы можете скачивать файлы