Статистика раздачи
Размер:  8,69 GB   |    Зарегистрирован:  6 месяцев 1 день   |    Скачан:  0 раз

Полного источника не было: Никогда

 
   
 
 

Симка ®

Пол:
Не указан
Стаж:
6 месяцев 1 день
Сообщений:
73

Изгнанник / Last Exile / ラストエグザイル
Страна: Япония
Жанр: паропанк, авиация, приключения, фантастика, драма
Продолжительность: ТВ (26 эп.), 24 мин.
Режиссер: Тигира Койти
Трансляция: c 08.04.2003 по 30.09.2003
Описание: Клаус и Лави выросли вместе и привыкли делить на двоих любую беду, кусок хлеба и любовь к небу. После того, как их отцы-пилоты погибли, выполняя важное задание, Клаус и Лави научились летать на старом кораблике-ваншипе – и сами стали курьерами. Но ваншип был для них не просто средством заработать на жизнь: юные пилоты мечтали победить в знаменитой гонке на Кубок Норикии. Они и представить не могли, что однажды сыграют важную роль в многолетнем противостоянии могущественной Гильдии и таинственного Алекса Роу, капитана непобедимого корабля «Сильвана»...

эпизоды

01. First Move /Первый ход/
02. Luft Vanship /Маневр ваншипа/
03. Transpose /Рокировка/
04. Zugzwang /Цугцванг/
05. Positional Play /Позиционная игра/
06. Arbiter Attack /Атака судьи/
07. Interesting Claus /Интересный Клаус/
08. Takeback /Возврат хода/
09. Calculate Alex /Вычисления Алекса/
10. Swindle /Ловушка/
11. Develop /Развитие/
12. Discovered Attack /Вскрытая атака/
13. Isolated Pawn /Изолированная пешка/
14. Etude Lavie /Этюд Лави/
15. Fairy Chess /Волшебные шахматы/
16. Breakthrough /Прорыв/
17. Making Material /Набор материала/
18. Promotion Sophia /Превращение Софии/
19. Sicilian Defense /Сицилианская защита/
20. Grand Stream /Грандстрим/
21. Rook Dio /Ладья Дио/
22. Queen Delphine /Ферзь Дельфина/
23. Castling Lucciola /Рокировка Люсиолы/
24. Sealed Move /Вынужденный ход/
25. Quiet move /Тихий ход/
26. Resign /Сдача/
--Отличия от предыдущих раздач:
  • Намного более высокое качество видео (сравнительные скриншоты)-Рип и всё такое: nonsens112
    Рип произведён с образов R1 DVD при помощи кучи софта и недель, потраченных на его настройку.
    Надеюсь, вам понравится ^_____~
    Контейнер: MKV
    Видео: MPEG4 Video (H264) 720x480 (16:9) 29.97fps (VFR 23.96fps avg), 1600 kbps, 8 bit
    Аудио: [JAP] AC3 2.0 48000 Hz stereo 224 kbps CBR
    Внешняя звуковая дорожка:
    Аудио: [RUS] Vorbis 48000 Hz stereo ~135 kbps VBR

    отчет Media Info

    General
    Unique ID : 253976168867464397937106893937851931300 (0xBF1207E7A33C65D0AC541E85CD729AA4)
    Complete name : ***\01. First Move.mkv
    Format : Matroska
    Format version : Version 1
    File size : 355 MiB
    Duration : 25mn 5s
    Overall bit rate : 1 978 Kbps
    Encoded date : UTC 2008-01-27 05:16:18
    Writing application : mkvmerge v2.0.2 ('You're My Flame') built on Feb 22 2007 00:05:35
    Writing library : libebml v0.7.7 + libmatroska v0.8.1
    Video
    ID : 1
    Format : AVC
    Format/Info : Advanced Video Codec
    Format profile : High@L5.1
    Format settings, CABAC : Yes
    Format settings, ReFrames : 13 frames
    Codec ID : V_MPEG4/ISO/AVC
    Duration : 25mn 5s
    Bit rate : 1 715 Kbps
    Nominal bit rate : 1 600 Kbps
    Width : 720 pixels
    Height : 480 pixels
    Display aspect ratio : 16:9
    Original display aspect rat : 3:2
    Frame rate mode : Constant
    Frame rate : 23.976 fps
    Color space : YUV
    Chroma subsampling : 4:2:0
    Bit depth : 8 bits
    Scan type : Progressive
    Bits/(Pixel*Frame) : 0.207
    Stream size : 308 MiB (87%)
    Writing library : x264 core 54 svn-635M
    Encoding settings : cabac=1 / ref=10 / deblock=1:-2:-1 / analyse=0x3:0x133 / me=umh / subme=7 / brdo=1 / mixed_ref=1 / me_range=32 / chroma_me=1 / trellis=2 / 8x8dct=1 / cqm=0 / deadzone=21,11 / chroma_qp_offset=0 / threads=8 / nr=0 / decimate=0 / mbaff=0 / bframes=3 / b_pyramid=1 / b_adapt=1 / b_bias=0 / direct=3 / wpredb=1 / bime=1 / keyint=250 / keyint_min=25 / scenecut=40(pre) / rc=2pass / bitrate=1600 / ratetol=1.0 / rceq='blurCplx^(1-qComp)' / qcomp=0.60 / qpmin=10 / qpmax=51 / qpstep=4 / cplxblur=20.0 / qblur=0.5 / ip_ratio=1.40 / pb_ratio=1.30 / aq=1:1.0:15.0
    Default : Yes
    Forced : No
    Audio
    ID : 2
    Format : AC-3
    Format/Info : Audio Coding 3
    Mode extension : CM (complete main)
    Format settings, Endianness : Big
    Codec ID : A_AC3
    Duration : 25mn 5s
    Bit rate mode : Constant
    Bit rate : 224 Kbps
    Channel(s) : 2 channels
    Channel positions : Front: L R
    Sampling rate : 48.0 KHz
    Compression mode : Lossy
    Stream size : 40.2 MiB (11%)
    Language : Japanese
    Default : Yes
    Forced : No
    Text #1
    ID : 3
    Format : ASS
    Codec ID : S_TEXT/ASS
    Codec ID/Info : Advanced Sub Station Alpha
    Compression mode : Lossless
    Title : ASS
    Language : Russian
    Default : Yes
    Forced : No
    Text #2
    ID : 4
    Format : UTF-8
    Codec ID : S_TEXT/UTF8
    Codec ID/Info : UTF-8 Plain Text
    Title : SRT
    Language : Russian
    Default : No
    Forced : No
    Text #3
    ID : 5
    Format : ASS
    Codec ID : S_TEXT/ASS
    Codec ID/Info : Advanced Sub Station Alpha
    Compression mode : Lossless
    Title : ASS
    Language : English
    Default : No
    Forced : No
    Text #4
    ID : 6
    Format : UTF-8
    Codec ID : S_TEXT/UTF8
    Codec ID/Info : UTF-8 Plain Text
    Title : SRT
    Language : English
    Default : No
    Forced : No

    скриншоты

    --Перевод:
  • Оригинальная дорожка (нетронутая AC3 2.0 с R1 DVD)¹
  • Русские сабы (ASS+SRT)² от MC Ent. (альтернативный фансаб можно скачать здесь)
  • Английские сабы (ASS+SRT) от a4e
  • Русский многоголосый закадровый перевод от MC Ent. (внешними файлами OGG)

    Примечания

    ¹ Я знаю, что у MC звук в 5 каналов, но сильно сомневаюсь что это честная многоканальность, а не микс со стерео-источника.
    Раздобыть хоть один оригинальный R2J DVD или проверить на многоканальной акустике эти очень-много-каналов-от-MC мне пока не довелось, на стерео-акустике эти 5 каналов звучат хуже чем родное стерео с R1, поэтому было решено не обделять битрейтом самое главное - видеопоток, для которого в данном случае разница даже в 100 kbps была хорошо заметна.

    ² Конечно, ASS-оформление не есть плод стараний MC Ent, равно как и a4e, просто SRT-сабы были конвертированы в ASS с установкой некоторого оптимального, на мой взгляд, стиля. Таким же образом мы, скорее всего, будем поступать с SRT в последующих релизах.
    --Д О П . И Н Ф О
    Для просмотра этого и других аниме на компьютере рекомендуется установить набор кодеков C.C.C.P., правильно настроить ffdshow и проигрывать файлы входящим в C.C.C.P. проигрывателем Media Player Classic.

    Как переключить звуковую дорожку или субтитры?

    Запустив проигрывать одну из серий, смотрим на таскбар (справа внизу экрана рядом с часами), видим значок или .
    Щелчок правой кнопкой мыши по этому значку открывает меню, в котором можно выбрать интересующий аудио-поток и субтитры:

    или

    Альтернативно, можно в несколько кликов смикшировать видео с русской дорожкой, чтобы с русским дубляжом смотреть это аниме можно было ничего не переключая.
    Операция потребует 7.69 ГБ места на диске и от ~3 до ~20 минут времени, в зависимости от быстродействия вашего ПК.
    [cybertorrent.ru].t763.torrent 
    Торрент: Зарегистрирован [ 2018-02-15 22:25 ] · D52BC0E72A4CA8E2B510CF02B1BBBAEC7D74A0E0

    Скачать .torrent

    Скачать

    25 KB

    Статус: проверено
    Скачан: 0 раз
    Размер: 8,69 GB
  • Профиль [ЛС]
    Показать сообщения:    

    Текущее время: 17-Авг 05:49

    Часовой пояс: UTC ± 0



    Вы не можете начинать темы
    Вы не можете отвечать на сообщения
    Вы не можете редактировать свои сообщения
    Вы не можете удалять свои сообщения
    Вы не можете голосовать в опросах
    Вы не можете прикреплять файлы к сообщениям
    Вы можете скачивать файлы
    Torrents24.ru открытый BitTorrent Torrents24.pl открытый BitTorrent CyberTorrent.ru открытый BitTorrent BtList.ru рейтинг BitTorrent трекеров Яндекс.Метрика