Статистика раздачи
Размер:  607 MB   |    Зарегистрирован:  3 месяца 7 дней   |    Скачан:  0 раз

Полного источника не было: Никогда

Личеров:  5  [  0 KB/s  ]  
 
   
 
 

Zima ®

Пол:
Не указан
Стаж:
3 месяца 8 дней
Сообщений:
293

Аншлаг и компания - На бис!
Год выпуска: 2007
Страна: Россия
Жанр: Концерт
Продолжительность: 01:14:21
Описание: Лучшие фрагменты выступлений любимых артистов в "Аншлаге".
Принимают участие: Г.Ветров, К.Зверева, С.Рожкова, братья Пономаренко, Ю.Гальцев, Е.Воробей, мим-дуэт "Валерий и Глеб", Экс-Б-Б, В.Винокур.
Качество: TVRip
Формат: AVI
Видео кодек: DivX
Аудио кодек: MP3
Видео: 640x480 (1.33:1), 25 fps, DivX 5.2.1 alpha ~999 kbps
Аудио: 44.1 kHz, MP3, 2 ch, ~128 kbps

Скриншоты

Тех. данные

General
Format : AVI
Format/Info : Audio Video Interleave
File size : 607 MiB
Duration : 1 h 14 min
Overall bit rate mode : Variable
Overall bit rate : 1 140 kb/s
Video
ID : 0
Format : MPEG-4 Visual
Format settings, BVOP : 1
Format settings, QPel : No
Format settings, GMC : No warppoints
Format settings, Matrix : Default (H.263)
Muxing mode : Packed bitstream
Codec ID : DX50
Codec ID/Hint : DivX 5
Duration : 1 h 14 min
Bit rate : 996 kb/s
Nominal bit rate : 4 000 kb/s
Width : 640 pixels
Height : 480 pixels
Display aspect ratio : 4:3
Frame rate : 25.000 FPS
Color space : YUV
Chroma subsampling : 4:2:0
Bit depth : 8 bits
Scan type : Progressive
Compression mode : Lossy
Bits/(Pixel*Frame) : 0.130
Stream size : 530 MiB (87%)
Title : Video
Writing library : DivX 5.2.1 Alpha (UTC 2004-09-08)
Audio
ID : 1
Format : MPEG Audio
Format version : Version 1
Format profile : Layer 3
Mode : Joint stereo
Mode extension : MS Stereo
Codec ID : 55
Codec ID/Hint : MP3
Duration : 1 h 14 min
Bit rate mode : Variable
Bit rate : 128 kb/s
Channel(s) : 2 channels
Sampling rate : 44.1 kHz
Compression mode : Lossy
Stream size : 70.3 MiB (12%)
Alignment : Aligned on interleaves
Interleave, duration : 26 ms (0.65 video frame)
Interleave, preload duration : 482 ms
Title : Audio
[cybertorrent.ru].t765.torrent 
Торрент: Зарегистрирован [ 2018-02-15 22:25 ] · 030B610F527D9F03C72F63E1CF803B2B171A20BB

Скачать .torrent

Скачать

12 KB

Статус: проверено
Скачан: 0 раз
Размер: 607 MB
Профиль [ЛС]
Показать сообщения:    

Текущее время: 23-Май 16:22

Часовой пояс: UTC ± 0



Вы не можете начинать темы
Вы не можете отвечать на сообщения
Вы не можете редактировать свои сообщения
Вы не можете удалять свои сообщения
Вы не можете голосовать в опросах
Вы не можете прикреплять файлы к сообщениям
Вы можете скачивать файлы