Floyd ®

Пол:
Мужской
Стаж:
6 месяцев 22 дня
Сообщений:
1130

Космические ЧП (1 сезон: 8 серий из 8) / Secret Space Escapes
Дата/Год выпуска: 2015
Страна: США
Жанр: Документальный, космос, катастрофы, история
Продолжительность: 8 х ~ 00:44:00
Перевод: Профессиональный (двухголосый закадровый)
Телеканал: Discovery Science HD
Описание: Сериал расскажет о самых сложных, непредвиденных и опасных ситуациях, происходивших в космосе с людьми и космическими аппаратами. Вы уведите самые невероятные, опасные и ранее никогда не демонстрировавшиеся аварийные ситуации и опасные происшествия с космонавтами за всю историю космических путешествий. Каждая серия длиной в час с помощью компьютерной графики и документальных видеоматериалов покажет, насколько рискованно бороздить космос и как выжить в смертельно-опасной ситуации.
качество: HDTVRip
формат: AVI
Видео: 720x400 (1.80:1), 25 fps, XviD build 73 ~1899 kbps avg, 0.26 bit/pixel
Аудио: 48 kHz, AC3 Dolby Digital, 2/0 (L,R) ch, ~192.00 kbps avgСписок выпусков/серий1. Пожар на орбитальной станции «Мир» / Fire on the Mir
Космонавты тушат очаг возгорания на борту русской орбитальной станции «Мир» и пытаются произвести стыковку с грузовым кораблем..
2. Кораблекрушение / Shipwrecked
В ходе столкновения с грузовым кораблем, повреждается обшивка русской орбитальной станции «Мир». Вместе с кислородом утекает и надежда на спасение экипажа.
3. Крах секретной миссии / Secret Mission Mayday
Во время засекреченной миссии команда космического шаттла «Атлантис» обнаруживает неустранимое повреждение теплозащитного экрана в нижней части корабля.
4. Токсичная утечка / Toxic Leak
Токсичная утечка аммиака угрожает жизни всему экипажу; советский космонавт едва выживает во время возвращения и оказывается в затруднительном положении; шлем космонавта заполняется водой, угрожая утопить его в космосе.
5. Точка невозврата / Point of No Return
Космонавт в открытом космосе теряет зрение после неисправности скафандра; космонавты охвачены огнем, находясь на стартовой площадке; миссия челнока прерывается за 4 секунды до запуска, но экипаж не знает, почему.
6. Неисправность солнечной батареи / Solar Panel Crisis
Ремонт панели солнечной батареи; гибель советского космонавта при входе в плотные слои атмосферы.
7. Оставить корабль / Abandon Ship
Проблемы с энергообеспечением и компьютерами; выход Алексея Леонова в открытый космос
8. Нехватка кислорода / Gasping for Air
Ядовитая утечка угрожает жизни космонавтов; миссия на космическую станцию «Салют» делает неожиданный поворот, когда экипаж подвергается разгерметизации.

MediaInfo

Космические.ЧП.(1.сезон).2015.XviD.HDTVRip.alf62\1.Пожар.на.станции.«Мир».XviD.HDTVRip.alf62.avi
Формат : AVI
Формат/Информация : Audio Video Interleave
Размер файла : 662 Мбайт
Продолжительность : 44 м.
Общий поток : 2102 Кбит/сек
Программа кодирования : VirtualDubMod 1.5.10.3 | www.virtualdub-fr.org || (build 2550/release)
Библиотека кодирования : VirtualDubMod build 2550/release
Видео
Идентификатор : 0
Формат : MPEG-4 Visual
Профиль формата : Advanced Simple@L5
Параметр BVOP формата : 2
Параметр QPel формата : Нет
Параметр GMC формата : Без точки перехода
Параметр матрицы формата : Default (MPEG)
Идентификатор кодека : XVID
Идентификатор кодека/Подсказка : XviD
Продолжительность : 44 м.
Битрейт : 1900 Кбит/сек
Ширина : 720 пикселей
Высота : 400 пикселей
Соотношение сторон : 16:9
Частота кадров : 25,000 кадров/сек
Цветовое пространство : YUV
Субдискретизация насыщенности : 4:2:0
Битовая глубина : 8 бит
Тип развёртки : Прогрессивная
Метод сжатия : С потерями
Бит/(Пиксели*Кадры) : 0.264
Размер потока : 598 Мбайт (90%)
Библиотека кодирования : XviD 73
Аудио
Идентификатор : 1
Формат : AC-3
Формат/Информация : Audio Coding 3
Расширение режима : CM (complete main)
Параметр Endianness формата : Big
Идентификатор кодека : 2000
Продолжительность : 44 м.
Вид битрейта : Постоянный
Битрейт : 192 Кбит/сек
Каналы : 2 канала
Расположение каналов : Front: L R
Частота : 48,0 КГц
Битовая глубина : 16 бит
Метод сжатия : С потерями
Размер потока : 60,5 Мбайт (9%)
Выравнивание : Разделение по промежуткам
Продолжительность промежутка : 40 мс. (1,00 видеокадр)
Время предзагрузки промежутка : 500 мс.

Скриншоты

Профиль ЛС
Показать сообщения:    

Текущее время: 20-Окт 07:07

Часовой пояс: UTC ± 0



Вы не можете начинать темы
Вы не можете отвечать на сообщения
Вы не можете редактировать свои сообщения
Вы не можете удалять свои сообщения
Вы не можете голосовать в опросах
Вы не можете прикреплять файлы к сообщениям
Вы не можете скачивать файлы