Статистика раздачи
Размер:  1,36 GB   |    Зарегистрирован:  3 месяца 11 дней   |    Скачан:  0 раз

Полного источника не было: Никогда

 
   
 
 

lopster ®

Пол:
Не указан
Стаж:
3 месяца 11 дней
Сообщений:
612

Блаженная
Год выпуска: 2007
Жанр: драма
Продолжительность: 01:31:53
Режиссер: Сергей Струсовский
В ролях: Карина Разумовская, Даниил Страхов, Вячеслав Жолобов, Галина Яцкина, Александр Масалов, Алексей Вертинский, Виктор Тереля, Ада Роговцева, Роман Хардиков, Владимир Гусев, Ксения Караева, Андрей Бирин, Оксана Бурлай-Питерова, Светлана Никифорова, Алиса Близнец, Ксения Кожухова, Тамара Спиричева, Александр Ратников, Яна Делиева, Маша Филипенко, Володя Романюк
Описание: Героиня фильма - художница по имени Александра. Она приезжает в Москву с желанием учиться рисовать и встретить любимого человека - ведь в большом городе много людей и много возможностей. Однако, и много бед, которые не обойдут Александру стороной, - не ради того, чтобы пощекотать нервы зрителю, а так устроен мир, что белое максимально проявляется на черном...
Все раздачи фильма: Блаженная
Просмотр AVC H.264 рипов на бытовых плеерах невозможен.
Качество видео: DVDRip-AVC
Формат видео: MKV
Видео: MPEG4 Video (H264) 720x416 25 fps 1673 Kbps
Аудио: Dolby AC3 48000 Hz 6 ch 448 Kbps

MI

Код:Общее
Уникальный идентификатор : 233413808361562803469333162519958749404 (0xAF99DD427BA48863B2BFB3F18AB180DC)
Полное имя : C:\otkat\Видео\Блаженная\Blajennaya_torents.ru.mkv
Формат : Matroska
Версия формата : Version 1
Размер файла : 1,36 Гбайт
Продолжительность : 1 ч. 31 м.
Общий поток : 2124 Кбит/сек
Дата кодирования : UTC 2008-08-18 17:12:06
Программа кодирования : mkvmerge v2.2.0 ('Turn It On Again') built on Mar 4 2008 12:58:26
Библиотека кодирования : libebml v0.7.7 + libmatroska v0.8.1
Видео
Идентификатор : 1
Формат : AVC
Формат/Информация : Advanced Video Codec
Профиль формата : High@L5.1
Параметр CABAC формата : Да
Параметр ReFrames формата : 3 кадра
Идентификатор кодека : V_MPEG4/ISO/AVC
Продолжительность : 1 ч. 31 м.
Битрейт : 1673 Кбит/сек
Ширина : 720 пикселей
Высота : 416 пикселей
Соотношение сторон : 1,731
Режим частоты кадров : Постоянный
Частота кадров : 25,000 кадров/сек
Цветовое пространство : YUV
Субдискретизация насыщенности : 4:2:0
Битовая глубина : 8 бит
Тип развёртки : Прогрессивная
Бит/(Пиксели*Кадры) : 0.223
Размер потока : 1,05 Гбайт (77%)
Библиотека кодирования : x264 core 59
Настройки программы : cabac=1 / ref=3 / deblock=1:-2:-1 / analyse=0x3:0x133 / me=umh / subme=7 / brdo=1 / mixed_ref=1 / me_range=16 / chroma_me=1 / trellis=2 / 8x8dct=1 / cqm=0 / deadzone=21,11 / chroma_qp_offset=0 / threads=2 / nr=0 / decimate=0 / mbaff=0 / bframes=3 / b_pyramid=0 / b_adapt=1 / b_bias=0 / direct=3 / wpredb=1 / bime=1 / keyint=250 / keyint_min=25 / scenecut=40(pre) / rc=2pass / bitrate=1673 / ratetol=1.0 / rceq='blurCplx^(1-qComp)' / qcomp=1.00 / qpmin=10 / qpmax=51 / qpstep=4 / cplxblur=20.0 / qblur=0.5 / ip_ratio=1.40 / pb_ratio=1.30 / aq=2:1.00
Default : Да
Forced : Нет
Аудио
Идентификатор : 2
Формат : AC-3
Формат/Информация : Audio Coding 3
Расширение режима : CM (complete main)
Параметр Endianness формата : Big
Идентификатор кодека : A_AC3
Продолжительность : 1 ч. 31 м.
Вид битрейта : Постоянный
Битрейт : 448 Кбит/сек
Каналы : 6 каналов
Расположение каналов : Front: L C R, Side: L R, LFE
Частота : 48,0 КГц
Частота кадров : 31,250 кадров/сек (1536 spf)
Метод сжатия : С потерями
Размер потока : 294 Мбайт (21%)
Default : Да
Forced : Нет

Скриншоты

[cybertorrent.ru].t77.torrent 
Торрент: Зарегистрирован [ 2018-02-15 13:57 ] · DCB490C28EAB2258AE48EBBAA9550007CB5B796D

Скачать .torrent

Скачать

14 KB

Статус: проверено
Скачан: 0 раз
Размер: 1,36 GB
Профиль [ЛС]
Показать сообщения:    

Текущее время: 26-Май 15:26

Часовой пояс: UTC ± 0



Вы не можете начинать темы
Вы не можете отвечать на сообщения
Вы не можете редактировать свои сообщения
Вы не можете удалять свои сообщения
Вы не можете голосовать в опросах
Вы не можете прикреплять файлы к сообщениям
Вы можете скачивать файлы