Floyd ®

Пол:
Мужской
Стаж:
6 месяцев 22 дня
Сообщений:
1130

Чудо-женщины / Wonder Women / Расширенная / EXTENDED
Страна: Филиппины, США
Студия: American National Enterprises, General Film Corporation
Жанр: ужасы, фантастика, боевик, триллер
Год выпуска: 1973
Продолжительность: 01:30:15--Перевод: Авторский (одноголосый закадровый)
Субтитры: русские (форсированные), английские
Оригинальная аудиодорожка: английская--Режиссер: Роберт Винсент О’Нил / Robert Vincent O'Neil--В ролях: Нэнси Кван, Росс Хэйген, Мария Де Арагон, Роберта Коллинз, Tony Lorea, Сид Хэйг, Вик Диас, Клер Хэйген, Ширли Вашингтон, Гэйл Хансен--Описание: Доктор Цу является блестящим хирургом и способна пересадить любую часть тела, но Цу использует своё мастерство, мягко говоря, не совсем законным образом — она похищает выдающихся спортсменов мира, чтобы затем продать их органы богачам. Страховой следователь Майк Харбер вступает в противостояние с бандой женщин-головорезов, которыми командует коварная Цу…--]
Тип релиза: BDRip 720p
Контейнер: MKV
Видео кодек: H.264
Аудио кодек: DTS, AC-3
Видео: MPEG4/AVC, 1,85:1, 23.976 (24000/1001) FPS, 1280x690p, 13,7 Mb/s
Аудио 1: Русский, AC-3, 48.0 kHz, 2.0, 192 kb/s - авторский Андрей Дольский
Аудио 2: Английский, DTS, 48.0 kHz, 1.0, 768 kb/s, 24 bits
Формат субтитров: softsub (SRT)

MediaInfo

x264
x264 [info]: profile Progressive High, level 4.1, 4:2:0, 8-bit
x264 [info]: frame I:781 Avg QP:16.46 size:159059
x264 [info]: frame P:24916 Avg QP:17.69 size:105354
x264 [info]: frame B:104150 Avg QP:19.69 size: 62386
x264 [info]: consecutive B-frames: 1.1% 1.2% 3.6% 16.2% 18.1% 42.6% 8.8% 2.5% 2.3% 2.0% 0.8% 0.2% 0.2% 0.2% 0.0% 0.0% 0.2%
x264 [info]: kb/s:13659.09
Общее
Формат : Matroska
Версия формата : Version 4
Размер файла : 9,22 Гбайт
Продолжительность : 1 ч. 30 м.
Общий поток : 14,6 Мбит/сек
Название фильма : Wonder.Women.1973 - Rutracker
Дата кодирования : UTC 2019-10-05 17:06:55
Программа кодирования : mkvmerge v37.0.0 ('Leave It') 64-bit
Библиотека кодирования : libebml v1.3.9 + libmatroska v1.5.2
Обложка : Yes
Attachments : cover.jpg
Видео
Идентификатор : 1
Формат : AVC
Формат/Информация : Advanced Video Codec
Профиль формата : High@L4.1
Настройки формата : CABAC / 9 Ref Frames
Параметр CABAC формата : Да
Параметр RefFrames формата : 9 кадров
Идентификатор кодека : V_MPEG4/ISO/AVC
Продолжительность : 1 ч. 30 м.
Битрейт : 13,7 Мбит/сек
Ширина : 1280 пикселей
Высота : 690 пикселей
Соотношение сторон : 1,85:1
Режим частоты кадров : Постоянный
Частота кадров : 23,976 (24000/1001) кадра/сек
Цветовое пространство : YUV
Субдискретизация насыщенности : 4:2:0
Битовая глубина : 8 бит
Тип развёртки : Прогрессивная
Бит/(Пиксели*Кадры) : 0.645
Размер потока : 8,61 Гбайт (93%)
Заголовок : Wonder.Women.1973 - ripped by <<LION1234>>
Библиотека кодирования : x264 core 157 r2969 d4099dd
Настройки программы : cabac=1 / ref=9 / deblock=1:-2:-1 / analyse=0x3:0x113 / me=umh / subme=10 / psy=1 / psy_rd=0.84:0.00 / mixed_ref=1 / me_range=24 / chroma_me=1 / trellis=2 / 8x8dct=1 / cqm=0 / deadzone=21,11 / fast_pskip=1 / chroma_qp_offset=-2 / threads=6 / lookahead_threads=1 / sliced_threads=0 / nr=0 / decimate=0 / interlaced=0 / bluray_compat=0 / constrained_intra=0 / bframes=16 / b_pyramid=2 / b_adapt=2 / b_bias=0 / direct=1 / weightb=1 / open_gop=0 / weightp=2 / keyint=250 / keyint_min=23 / scenecut=40 / intra_refresh=0 / rc_lookahead=60 / rc=crf / mbtree=0 / crf=16.6 / qcomp=0.64 / qpmin=10 / qpmax=51 / qpstep=4 / vbv_maxrate=62500 / vbv_bufsize=78125 / crf_max=0.0 / nal_hrd=none / filler=0 / ip_ratio=1.40 / pb_ratio=1.30 / aq=2:0.90
Default : Да
Forced : Нет
Аудио #1
Идентификатор : 2
Формат : AC-3
Формат/Информация : Audio Coding 3
Коммерческое название : Dolby Digital
Идентификатор кодека : A_AC3
Продолжительность : 1 ч. 29 м.
Вид битрейта : Постоянный
Битрейт : 192 Кбит/сек
Каналы : 2 канала
ChannelLayout : L R
Частота : 48,0 КГц
Частота кадров : 31,250 кадров/сек (1536 SPF)
Метод сжатия : С потерями
Размер потока : 124 Мбайт (1%)
Заголовок : русский AVO
Язык : Russian
ServiceKind/String : Complete Main
Default : Да
Forced : Нет
Аудио #2
Идентификатор : 3
Формат : DTS
Формат/Информация : Digital Theater Systems
Идентификатор кодека : A_DTS
Продолжительность : 1 ч. 30 м.
Вид битрейта : Постоянный
Битрейт : 768 Кбит/сек
Каналы : 1 канал
ChannelLayout : C
Частота : 48,0 КГц
Частота кадров : 93,750 кадра/сек (512 SPF)
Битовая глубина : 24 бит
Метод сжатия : С потерями
Размер потока : 496 Мбайт (5%)
Заголовок : английский
Язык : English
Default : Нет
Forced : Нет
Текст #1
Идентификатор : 4
Формат : UTF-8
Идентификатор кодека : S_TEXT/UTF8
Идентификатор кодека/Информация : UTF-8 Plain Text
Продолжительность : 15 м. 8 с.
Битрейт : 37 бит/сек
ElementCount : 72
Размер потока : 4,13 Кбайт (0%)
Заголовок : русские (форсированные)
Язык : Russian
Default : Нет
Forced : Нет
Текст #2
Идентификатор : 5
Формат : UTF-8
Идентификатор кодека : S_TEXT/UTF8
Идентификатор кодека/Информация : UTF-8 Plain Text
Продолжительность : 1 ч. 21 м.
Битрейт : 43 бит/сек
ElementCount : 815
Размер потока : 26,1 Кбайт (0%)
Заголовок : английские
Язык : English
Default : Нет
Forced : Нет
Меню
00:00:00.000 : :Chapter 01
00:22:05.615 : :Chapter 02
00:46:47.513 : :Chapter 03
01:07:24.707 : :Chapter 04
01:21:38.602 : :Chapter 05

Скриншоты

Пример субтитров

1
00:14:30,078 --> 00:14:30,995
- Его зовут Марк Гарбер.
2
00:22:08,702 --> 00:22:10,287
- О, а он секси.
3
00:22:10,621 --> 00:22:11,372
- Вау.
4
00:22:12,873 --> 00:22:15,251
Да, он меня заводит ...
5
00:22:15,584 --> 00:22:16,710
- Меня тоже.
6
00:22:18,170 --> 00:22:20,339
- Ну, и че будем делать?
7
00:22:20,673 --> 00:22:23,384
- Ты, давай, займись верхней частью, а я нижней.
8
00:22:26,428 --> 00:22:27,263
- Красавчик.
9
00:22:29,598 --> 00:22:30,266
Просто класс!
10
00:22:31,517 --> 00:22:33,519
- Ради меня он и пальцем не пошевелит.

Сравнение

BD--------------------------------------Rip
Профиль ЛС
Показать сообщения:    

Текущее время: 20-Окт 07:19

Часовой пояс: UTC ± 0



Вы не можете начинать темы
Вы не можете отвечать на сообщения
Вы не можете редактировать свои сообщения
Вы не можете удалять свои сообщения
Вы не можете голосовать в опросах
Вы не можете прикреплять файлы к сообщениям
Вы не можете скачивать файлы