Статистика раздачи
Размер:  1,47 GB   |    Зарегистрирован:  11 дней   |    Скачан:  0 раз

Полного источника не было: Никогда

   
 

Floyd ®

Пол:
Мужской
Стаж:
6 месяцев 22 дня
Сообщений:
1130

Отец
Padre- Страна: США, Италия
Жанр: драма
Год выпуска: 2016
Продолжительность: 01:30:49
Перевод: Профессиональный (двухголосый закадровый) Студия "Акцент" по заказу компании Kino Polska
Субтитры: нет
Оригинальная аудиодорожка: английский/итальянский
Режиссер: Джада Колагранде / Giada Colagrande
В ролях: Джада Колагранде / Giada Colagrande (Giulia Fontana), Уиллем Дефо / Willem Dafoe (James Verdun), Франко Баттиато / Franco Battiato (Giulio Fontana, the father), Марина Абрамович / Marina Abramovic (Giulia's mother), Клаудио Коломбо / Claudio Colombo (Claudio, the doctor), Карло Гуаитоли / Carlo Guaitoli (Carlo, the pianist)
Описание: Джулия только что потеряла своего отца, великого композитора Джулио Фонтана. Через музыку он связывается с ней из другого измерения и ведет ее к посвящению в невидимый мир...
Качество видео: SATRip-AVC
Формат видео: MKV
Видео: AVC (H.264), 720x384 (1.85:1), 25 fps, ~2058 kbps avg, 0.298 bit/pixel
Аудио 1: MPEG Audio 2, 2 ch, 48 kHz, 128 kbps - русский
Аудио 2: MPEG Audio 2, 2 ch, 48 kHz, 128 kbps - английский/итальянский

MediaInfo

General
Unique ID : 310335873878113555494477436906241070960 (0xE97883E63D9D1C6A7534D60ED8011770)
Complete name : [apreder]Padre(2016)SATRip.mkv
Format : Matroska
Format version : Version 2
File size : 1.47 GiB
Duration : 1 h 30 min
Overall bit rate : 2 316 kb/s
Movie name : Padre
Released date : 2016-10-00
Encoded date : UTC 2019-10-08 06:59:22
Writing application : mkvmerge v38.0.0 ('The Silent Type') 64-bit
Writing library : libebml v1.3.9 + libmatroska v1.5.2
Cover : Yes
Attachments : cover.jpg / small_cover.jpg
ACTOR : Giada Colagrande, Willem Dafoe, Franco Battiato
DIRECTOR : Giada Colagrande
GENRE : Drama
IMDB : tt6095056
KEYWORDS : rutracker.org
LAW_RATING : 16+
Video
ID : 1
Format : AVC
Format/Info : Advanced Video Codec
Format profile : High@L4.1
Format settings : CABAC / 9 Ref Frames
Format settings, CABAC : Yes
Format settings, Reference frames : 9 frames
Codec ID : V_MPEG4/ISO/AVC
Duration : 1 h 30 min
Bit rate : 2 058 kb/s
Width : 720 pixels
Height : 384 pixels
Display aspect ratio : 1.85:1
Frame rate mode : Constant
Frame rate : 25.000 FPS
Color space : YUV
Chroma subsampling : 4:2:0
Bit depth : 8 bits
Scan type : Progressive
Bits/(Pixel*Frame) : 0.298
Stream size : 1.28 GiB (87%)
Writing library : x264 core 157 r2969 d4099dd
Encoding settings : cabac=1 / ref=9 / deblock=1:-1:-1 / analyse=0x3:0x133 / me=umh / subme=10 / psy=1 / psy_rd=1.00:0.15 / mixed_ref=1 / me_range=24 / chroma_me=1 / trellis=2 / 8x8dct=1 / cqm=0 / deadzone=21,11 / fast_pskip=1 / chroma_qp_offset=-3 / threads=12 / lookahead_threads=2 / sliced_threads=0 / nr=0 / decimate=1 / interlaced=0 / bluray_compat=0 / constrained_intra=0 / bframes=8 / b_pyramid=2 / b_adapt=2 / b_bias=0 / direct=3 / weightb=1 / open_gop=0 / weightp=2 / keyint=250 / keyint_min=25 / scenecut=40 / intra_refresh=0 / rc_lookahead=60 / rc=2pass / mbtree=1 / bitrate=2058 / ratetol=1.0 / qcomp=0.60 / qpmin=0 / qpmax=69 / qpstep=4 / cplxblur=20.0 / qblur=0.5 / vbv_maxrate=62500 / vbv_bufsize=78125 / nal_hrd=none / filler=0 / ip_ratio=1.40 / aq=1:1.00
Default : Yes
Forced : No
Audio #1
ID : 2
Format : MPEG Audio
Format version : Version 1
Format profile : Layer 2
Codec ID : A_MPEG/L2
Codec ID/Hint : MP2
Duration : 1 h 30 min
Bit rate mode : Constant
Bit rate : 128 kb/s
Channel(s) : 2 channels
Sampling rate : 48.0 kHz
Compression mode : Lossy
Stream size : 83.1 MiB (6%)
Language : Russian
Default : Yes
Forced : No
Audio #2
ID : 3
Format : MPEG Audio
Format version : Version 1
Format profile : Layer 2
Codec ID : A_MPEG/L2
Codec ID/Hint : MP2
Duration : 1 h 30 min
Bit rate mode : Constant
Bit rate : 128 kb/s
Channel(s) : 2 channels
Sampling rate : 48.0 kHz
Compression mode : Lossy
Stream size : 83.1 MiB (6%)
Language : Multiple languages
Default : No
Forced : No

Скриншот c названием фильма

Скриншоты


Резервные скриншоты


-
[cybertorrent.ru].t7731.torrent 
Торрент: Зарегистрирован [ 2019-10-08 16:58 ] · 98E80BD725DDB4BC2E255A7379D3391A3E852021

Скачать .torrent

Скачать

15 KB

Статус: проверено
Скачан: 0 раз
Размер: 1,47 GB
terms.php
Профиль ЛС
Показать сообщения:    

Текущее время: 20-Окт 06:22

Часовой пояс: UTC ± 0



Вы не можете начинать темы
Вы не можете отвечать на сообщения
Вы не можете редактировать свои сообщения
Вы не можете удалять свои сообщения
Вы не можете голосовать в опросах
Вы не можете прикреплять файлы к сообщениям
Вы можете скачивать файлы