Статистика раздачи
Размер:  2,69 GB   |    Зарегистрирован:  3 месяца 7 дней   |    Скачан:  0 раз

Полного источника не было: Никогда

 
   
 
 

Crazy ®

Пол:
Не указан
Стаж:
3 месяца 7 дней
Сообщений:
363

Призраки бездны: Титаник / Ghosts of the Abyss
Страна: США
Жанр: документальный, семейный
Год выпуска: 2003
Продолжительность: 01:27:50
Перевод: Профессиональный (двухголосый, закадровый)
Субтитры: нет
Оригинальная аудиодорожка: нет
Режиссер: Джеймс Кэмерон / James Cameron
В ролях: Билл Пэкстон, Др. Джон Бродвотер, Др. Лори Джонстон, Чарльз Пеллегрино, Дон Линч, Кен Маршалл, Джеймс Кэмерон, Майк Камерон, Джеффри Н. Ледда, Кори Джасколски
Описание: Джеймс Кэмерон расcказывает подлинную историю легендарного «Титаника». Подготовка к уникальным подводным съемкам велась долгих три года, за которые были собраны новейшие технологические ресурсы и составлена команда высококлассных профессионалов, в которую помимо съемочной группы вошли известные историки и океанологи.
Меню: есть, статичное
Тип релиза: DVD5
Контейнер: DVD-Video
Видео: PAL 16:9 (720x576(0.377)) MPEG Video, 25,000 кадр/сек, 3910 Кбит/сек
Аудио: Russian (Dolby AC-3, 6 ch) 448 Кбит/сек, 48.0 КГц

MediaInfo

Общее
Полное имя : Ghosts of the Abyss\VIDEO_TS\VTS_01_1.VOB
Формат : MPEG-PS
Размер файла : 1024 Мбайт
Продолжительность : 32 м. 11 с.
Режим общего битрейта : Переменный
Общий поток : 4446 Кбит/сек
Видео
Идентификатор : 224 (0xE0)
Формат : MPEG Video
Версия формата : Version 2
Профиль формата : Main@Main
Настройки формата : CustomMatrix / BVOP
Параметр BVOP формата : Да
Параметр матрицы формата : Выборочная
Параметр GOP формата : M=3, N=15
Структура изображения : Frame
Продолжительность : 32 м. 11 с.
Вид битрейта : Переменный
Битрейт : 3910 Кбит/сек
Максимальный битрейт : 9000 Кбит/сек
Ширина : 720 пикселей
Высота : 576 пикселей
Соотношение сторон : 16:9
Частота кадров : 25,000 кадров/сек
Стандарт вещания : PAL
Цветовое пространство : YUV
Субдискретизация насыщенности : 4:2:0
Битовая глубина : 8 бит
Тип развёртки : Чересстрочная
Порядок развёртки : Верхнее поле первое
Метод сжатия : С потерями
Бит/(Пиксели*Кадры) : 0.377
Временной код первого кадра : 00:00:00:00
Оригинал временного кода : Group of pictures header
GOP, открыто/закрыто : Закрыто
Размер потока : 900 Мбайт (88%)
Аудио
Идентификатор : 189 (0xBD)-128 (0x80)
Формат : AC-3
Формат/Информация : Audio Coding 3
Режим смешивания : DVD-Video
Продолжительность : 32 м. 11 с.
Вид битрейта : Постоянный
Битрейт : 448 Кбит/сек
Каналы : 6 каналов
Расположение каналов : Front: L C R, Side: L R, LFE
Частота : 48,0 КГц
Частота кадров : 31,250 кадров/сек (1536 SPF)
Битовая глубина : 16 бит
Метод сжатия : С потерями
Размер потока : 103 Мбайт (10%)
ServiceKind/String : Complete Main

Скриншоты меню

Скриншоты

[cybertorrent.ru].t774.torrent 
Торрент: Зарегистрирован [ 2018-02-15 22:25 ] · B9E3D07ECAB150F942B05FE48F4CA6ACA5667356

Скачать .torrent

Скачать

14 KB

Статус: проверено
Скачан: 0 раз
Размер: 2,69 GB
Профиль [ЛС]
Показать сообщения:    

Текущее время: 23-Май 07:19

Часовой пояс: UTC ± 0



Вы не можете начинать темы
Вы не можете отвечать на сообщения
Вы не можете редактировать свои сообщения
Вы не можете удалять свои сообщения
Вы не можете голосовать в опросах
Вы не можете прикреплять файлы к сообщениям
Вы можете скачивать файлы