Статистика раздачи
Размер:  3,16 GB   |    Зарегистрирован:  7 месяцев   |    Скачан:  0 раз

Полного источника не было: Никогда

   
 

Гость ®

Пол:
Не указан

Добряки
13.01.19 торрент обновлен. Запись трансляции ТК "Звезда" заменена записью ТК "Культура". Продолжительность 01:17:03 против 01:15:46.
Жанр: комедия
Год выпуска: 1979
Продолжительность: 01:17:03
Режиссёр: Карен Шахназаров
В ролях: Георгий Бурков, Татьяна Васильева, Николай Волков (старший), Владимир Зельдин, Виктор Шарлахов, Лариса Пашкова, Юрий Леонидов, Александр Сафронов, Валентина Теличкина, Валентин Никулин, Юрий Гусев
Описание: По одноименной пьесе Л.Зорина.
Творчески несостоятельная личность - так считал весь коллектив сотрудников Института античной культуры - благодаря все тому же коллективу быстро пошел "в гору"... Сопротивляться было и лень и бесполезно, а главное - некогда.
Доп. информация: Запись потока *.ts со спутника Экспресс АМ7, 40° в.д., ремукс в *.mkv программой VideoReDo.
Качество видео: DVB
Формат видео: MKV
Видео: MPEG Video, 720(1024)x576 (16:9), 25,000 кадров/сек, 5249 Кбит/сек
Аудио: MPEG Audio, 48,0 КГц, 256 Кбит/сек, 2 канала

MediaInfo

Общее
Уникальный идентификатор : 39106957990974380257097640584099956984 (0x1D6BB9E47FCBB558D0222D9289D488F8)
Полное имя : E:\Torrent\ДОБРЯКИ 16Х9 (Kultura 40).mkv
Формат : Matroska
Версия формата : Version 2
Размер файла : 3,16 Гбайт
Продолжительность : 1 ч. 17 м.
Режим общего битрейта : Переменный
Общий поток : 5878 Кбит/сек
Программа кодирования : Lavf52.64.2
Библиотека кодирования : Lavf52.64.2
Видео
Идентификатор : 1
Формат : MPEG Video
Версия формата : Version 2
Профиль формата : Main@Main
Параметр BVOP формата : Да
Параметр матрицы формата : Выборочная
Параметр GOP формата : M=3, N=15
Структура изображения : Frame
Идентификатор кодека : V_MPEG2
Идентификатор кодека/Информация : MPEG 1 or 2 Video
Продолжительность : 1 ч. 17 м.
Вид битрейта : Переменный
Битрейт : 5249 Кбит/сек
Максимальный битрейт : 15,0 Мбит/сек
Ширина : 720 пикселей
Высота : 576 пикселей
Соотношение сторон : 16:9
Соотношение сторон в оригинале : 16:9
Режим частоты кадров : Постоянный
Частота кадров : 25,000 кадров/сек
Стандарт вещания : PAL
Цветовое пространство : YUV
Субдискретизация насыщенности : 4:2:0
Битовая глубина : 8 бит
Тип развёртки : Чересстрочная
Порядок развёртки : Верхнее поле первое
Метод сжатия : С потерями
Бит/(Пиксели*Кадры) : 0.506
Размер потока : 2,83 Гбайт (89%)
Default : Да
Forced : Нет
Аудио #1
Идентификатор : 2
Формат : MPEG Audio
Версия формата : Version 1
Профиль формата : Layer 2
Идентификатор кодека : A_MPEG/L2
Идентификатор кодека/Подсказка : MP2
Продолжительность : 1 ч. 17 м.
Вид битрейта : Постоянный
Битрейт : 256 Кбит/сек
Каналы : 2 канала
Частота : 48,0 КГц
Метод сжатия : С потерями
Задержка видео : 12 мс.
Размер потока : 141 Мбайт (4%)
Язык : English
Default : Да
Forced : Нет
Аудио #2
Идентификатор : 3
Формат : MPEG Audio
Версия формата : Version 1
Профиль формата : Layer 2
Идентификатор кодека : A_MPEG/L2
Идентификатор кодека/Подсказка : MP2
Продолжительность : 1 ч. 17 м.
Вид битрейта : Постоянный
Битрейт : 256 Кбит/сек
Каналы : 2 канала
Частота : 48,0 КГц
Метод сжатия : С потерями
Задержка видео : 12 мс.
Размер потока : 141 Мбайт (4%)
Язык : English
Default : Нет
Forced : Нет
[cybertorrent.ru].t78.torrent 
Торрент: Зарегистрирован [ 2019-03-18 10:04 ] · 3459CF85DCC4C25B45C5A2A8261364FD8751E30B

Скачать .torrent

Скачать

16 KB

Статус: проверено
Скачан: 0 раз
Размер: 3,16 GB
terms.php
Показать сообщения:    

Текущее время: 19-Окт 04:31

Часовой пояс: UTC ± 0



Вы не можете начинать темы
Вы не можете отвечать на сообщения
Вы не можете редактировать свои сообщения
Вы не можете удалять свои сообщения
Вы не можете голосовать в опросах
Вы не можете прикреплять файлы к сообщениям
Вы можете скачивать файлы