Статистика раздачи
Размер:  1,36 GB   |    Зарегистрирован:  7 месяцев 25 дней   |    Скачан:  0 раз
DL-List: Нет

Полного источника не было: Никогда

 
     
 
 

MAGNAT ®

Пол:
Мужской
Стаж:
1 год 2 месяца
Сообщений:
7949

Он был ее мужчиной / He Was Her Man
Страна: США
Студии: The Vitaphone Corporation, Warner Bros. Pictures
Жанр: драма
Год выпуска: 1934
Продолжительность: 01:09:50
Перевод: Одноголосый закадровый - Алексей Яковлев
Субтитры: нет
Оригинальная аудиодорожка: английский
Режиссер: Ллойд Бэйкон / Lloyd Bacon
Композитор: Бернхард Каун / Bernhard Kaun
В ролях: Джеймс Кэгни / James Cagney ... Flicker Hayes, aka Jerry Allen
Джоан Блонделл / Joan Blondell ... Rose Lawrence
Виктор Джори / Victor Jory ... Nick Gardella
Фрэнк Крэвен / Frank Craven ... Pop Sims, aka Jim Parker
Сара Падден / Sarah Padden ... Mrs. Gardella
Харольд Хубер / Harold Huber ... J.C. Ward, Curly's Hitman
Расселл Хоптон / Russell Hopton ... Monk, Curly's Hitman
Ральф Харольд / Ralf Harolde ... Frank «Red» Deering
Джон Кволен / John Qualen ... Dutch, Santa Avila's Cabbie
Брэдли Пейдж / Bradley Page ... Dan «Danny» Curly

Описание: Фликер Хейс, недавно вышедший из тюрьмы, полон решимости отомстить бывшим подельникам, виновным в его заключении. Он выдаёт их полиции, после чего ему ничего другого не остаётся, как удариться в бега. Случайно он встречает бывшую проститутку Роуз, которая делиться с ним планами уехать в маленькую рыбацкую деревню, где её ждёт жених. Фликер решает, что такая деревушка может стать для него идеальным местом, чтобы укрыться. Он предлагает Роуз себя в качестве попутчика...
Качество видео: DVDRip
Формат видео: AVI
Видео: XviD, 640x480 (1.33:1), 23.976 fps, 2398 Kbps
Аудио 1: AC3, 48.0 KHz, 2 ch., 192 Kbps (русский одноголосый закадровый перевод) - Алексей Яковлев
Аудио 2: AC3, 48.0 KHz, 2 ch., 192 Kbps (оригинальная английская звуковая дорожка)

MediaInfo

Общее
Полное имя : F:\РАЗДАЧИ\He Was Her Man 1934\He Was Her Man.avi
Формат : AVI
Формат/Информация : Audio Video Interleave
Размер файла : 1,36 Гбайт
Продолжительность : 1 ч. 9 м.
Общий поток : 2796 Кбит/сек
Программа кодирования : VirtualDubMod 1.5.10.3 | www.virtualdub-fr.org || (build 2550/release)
Библиотека кодирования : VirtualDubMod build 2550/release
Видео
Идентификатор : 0
Формат : MPEG-4 Visual
Профиль формата : Advanced Simple@L5
Параметр BVOP формата : 2
Параметр QPel формата : Нет
Параметр GMC формата : Без точки перехода
Параметр матрицы формата : Default (H.263)
Идентификатор кодека : XVID
Идентификатор кодека/Подсказка : XviD
Продолжительность : 1 ч. 9 м.
Битрейт : 2398 Кбит/сек
Ширина : 640 пикселей
Высота : 480 пикселей
Соотношение сторон : 4:3
Частота кадров : 23,976 (24000/1001) кадра/сек
Цветовое пространство : YUV
Субдискретизация насыщенности : 4:2:0
Битовая глубина : 8 бит
Тип развёртки : Прогрессивная
Метод сжатия : С потерями
Бит/(Пиксели*Кадры) : 0.326
Размер потока : 1,17 Гбайт (86%)
Библиотека кодирования : XviD 73
Аудио #1
Идентификатор : 1
Формат : AC-3
Формат/Информация : Audio Coding 3
Параметр Endianness формата : Big
Идентификатор кодека : 2000
Продолжительность : 1 ч. 9 м.
Вид битрейта : Постоянный
Битрейт : 192 Кбит/сек
Каналы : 2 канала
Расположение каналов : Front: L R
Частота : 48,0 КГц
Частота кадров : 31,250 кадров/сек (1536 spf)
Битовая глубина : 16 бит
Метод сжатия : С потерями
Размер потока : 95,9 Мбайт (7%)
Выравнивание : Разделение по промежуткам
Продолжительность промежутка : 42 мс. (1,00 видеокадр)
Время предзагрузки промежутка : 500 мс.
ServiceKind/String : Complete Main
Аудио #2
Идентификатор : 2
Формат : AC-3
Формат/Информация : Audio Coding 3
Параметр Endianness формата : Big
Идентификатор кодека : 2000
Продолжительность : 1 ч. 9 м.
Вид битрейта : Постоянный
Битрейт : 192 Кбит/сек
Каналы : 2 канала
Расположение каналов : Front: L R
Частота : 48,0 КГц
Частота кадров : 31,250 кадров/сек (1536 spf)
Битовая глубина : 16 бит
Метод сжатия : С потерями
Размер потока : 95,9 Мбайт (7%)
Выравнивание : Разделение по промежуткам
Продолжительность промежутка : 42 мс. (1,00 видеокадр)
Время предзагрузки промежутка : 500 мс.
ServiceKind/String : Complete Main
[cybertorrent.ru].t7894.torrent 
Торрент: Зарегистрирован [ 2019-10-10 18:38 ] · 6ED660F6ED52309AA09B423AD4AB5733A518F04D

Скачать .torrent

Скачать

14 KB

Статус: проверено
Скачан: 0 раз
Размер: 1,36 GB  ·  Тип торрента
terms.php
Профиль [ЛС]
Показать сообщения:    

Текущее время: 05-Июн 12:08

Часовой пояс: UTC ± 0



Вы не можете начинать темы
Вы не можете отвечать на сообщения
Вы не можете редактировать свои сообщения
Вы не можете удалять свои сообщения
Вы не можете голосовать в опросах
Вы не можете прикреплять файлы к сообщениям
Вы можете скачивать файлы