Статистика раздачи
Размер:  700 MB   |    Зарегистрирован:  3 месяца 12 дней   |    Скачан:  0 раз

Полного источника не было: Никогда

 
   
 
 

lopster ®

Пол:
Не указан
Стаж:
3 месяца 12 дней
Сообщений:
612

Живой
Жанр: драма, мистика
Год выпуска: 2006
Продолжительность: 01:32:15
Режиссер: Александр Велединский
В ролях: Андрей Чадов, Максим Лагашкин, Владимир Епифанцев, Алексей Чадов, Александр Робак, Андрей Рапопорт, Виктория Смирнова, Ольга Арнтгольц, Вадим Бурмистров, Нелли Селезнёва (Неведина), Виктор Раков, Алексей Горбунов, Роман Крюков, Анна Уколова, Игорь Куликовский, Любовь Зайцева, Дмитрий Топорков, Александр Васильев, Яник Николенко, Дмитрий Удалов (дублер Андрея Чадова), Владимир Фенченко, Иван Тимченко, Иван Калинин, Анатолий Залюбовский, Дмитрий Лавров, Екатерина Волкова, Андрей Ларин, Ольга Богданова
Описание: Солдат-контрактник Сергей по прозвищу Кир возвращается с чеченской войны - на протезе (без отрезанной по колено левой ноги) и без друзей, оставшихся на поле боя. Он испытывает чувство вины за гибель товарищей, которые помогли ему остаться в живых. "Гражданка" встречает Кира равнодушием и коррупцией в лице начальника финансового отдела, подписывающего разрешение на выдачу оплаченных кровью денег только после взятки в 10 тысяч рублей. В пылу ссоры Кир убивает жулика-офицера, в панике бежит с места преступления и попадает под машину. Очнувшись, он понимает, что ему опять повезло, он снова живой. А рядом с ним - его погибшие друзья, которых, кроме него, никто не видит...

Все раздачи фильма: Живой
Качество видео: DVDRip
Формат видео: AVI
Видео: 608х336; 23.976 fps; XviD; 783 kb/s
Аудио: MPEG Layer 3, 2 ch; 128 kb/s; 48 kHz

MI

Код:Общее
Полное имя : C:\otkat\Видео\Живой\zhivoy.reliz.BiNuRaL.avi
Формат : AVI
Формат/Информация : Audio Video Interleave
Размер файла : 700 Мбайт
Продолжительность : 1 ч. 32 м.
Общий поток : 1061 Кбит/сек
Программа кодирования : VirtualDubMod 1.5.4.1 (build 2178/release)
Библиотека кодирования : VirtualDubMod build 2178/release
Видео
Идентификатор : 0
Формат : MPEG-4 Visual
Профиль формата : Advanced Simple@L5
Параметр BVOP формата : 1
Параметр QPel формата : Нет
Параметр GMC формата : Без точки перехода
Параметр матрицы формата : Выборочная
Идентификатор кодека : XVID
Идентификатор кодека/Подсказка : XviD
Продолжительность : 1 ч. 32 м.
Битрейт : 926 Кбит/сек
Ширина : 608 пикселей
Высота : 336 пикселей
Соотношение сторон : 16:9
Частота кадров : 25,000 кадров/сек
Цветовое пространство : YUV
Субдискретизация насыщенности : 4:2:0
Битовая глубина : 8 бит
Тип развёртки : Прогрессивная
Метод сжатия : С потерями
Бит/(Пиксели*Кадры) : 0.181
Размер потока : 611 Мбайт (87%)
Библиотека кодирования : XviD 1.2.0SMP (UTC 2006-01-08)
Аудио
Идентификатор : 1
Формат : MPEG Audio
Версия формата : Version 1
Профиль формата : Layer 3
Режим : Joint stereo
Расширение режима : MS Stereo
Идентификатор кодека : 55
Идентификатор кодека/Подсказка : MP3
Продолжительность : 1 ч. 32 м.
Вид битрейта : Постоянный
Битрейт : 128 Кбит/сек
Каналы : 2 канала
Частота : 48,0 КГц
Метод сжатия : С потерями
Размер потока : 84,4 Мбайт (12%)
Выравнивание : Соединение по промежуткам
Продолжительность промежутка : 80 мс. (2,00 видеокадра)
Время предзагрузки промежутка : 504 мс.
Библиотека кодирования : LAME3.97b
Настройки программы : -m j -V 4 -q 2 -lowpass 17 -b 128
Язык : Russian

Скриншоты

[cybertorrent.ru].t8.torrent 
Торрент: Зарегистрирован [ 2018-02-15 13:57 ] · AC08EC2C4508A836754655201AB938B5E2957271

Скачать .torrent

Скачать

14 KB

Статус: проверено
Скачан: 0 раз
Размер: 700 MB
Профиль [ЛС]
Показать сообщения:    

Текущее время: 28-Май 08:07

Часовой пояс: UTC ± 0



Вы не можете начинать темы
Вы не можете отвечать на сообщения
Вы не можете редактировать свои сообщения
Вы не можете удалять свои сообщения
Вы не можете голосовать в опросах
Вы не можете прикреплять файлы к сообщениям
Вы можете скачивать файлы