Статистика раздачи
Размер:  9,92 GB   |    Зарегистрирован:  3 месяца 11 дней   |    Скачан:  0 раз

Полного источника не было: Никогда

 
   
 
 

koljan ®

Пол:
Не указан
Стаж:
3 месяца 11 дней
Сообщений:
472

Весь КВН-1996 (Высшая лига)

Любите ли вы КВН так, как любим его мы?
Умеете ли вы ценить игру, даже если в ней участвуют не ваши самые-самые команды? Готовы ли вы пересматривать любимые игры по нескольку раз? А так же беречь их, лелеять, аккуратно складывать в красивые коробочки,
которые потом будут лежать на самых модных полках вашего дома? Тогда нам по пути! KVNforAll - отдам КВН в хорошие руки! Форум для коллекционеров, безумных коллекционеров и просто тех, кто не смог посмотреть игру по телевизору.
Вот она! Долгожданная МЕГАРАЗДАЧА - ВЕСЬ КВН-1996! Полный набор игр Высшей лиги.
Напомню основные принципы:
1. Нет необходимости скачивать все выпуски целиком, т.к. при использовании BitComet, uTorrent и остальных прогрессивных торрент-клиентов можно отметить лишь выпуски, необходимые именно вам.
2. Краткие техданные для каждого файла приведены ниже. Подробнее о каждом из них можно узнать, кликнув по ссылке "афишка" рядом.
3. Любой желающий может присоединиться к раздаче, при наличии наших релизов у себя на компе (только не переименовывайте их, пожалуйста!). Наш проект некоммерческий и держится исключительно на энтузиазме его участников, любая помощь приветствуется
Так что присоединяйтесь и не переключайтесь!
Высшая лига:
КиВиН в Сочи (7-й международный фестиваль)
Файл: KVN.1996.(01).Sochi.www.kvnforall.info.avi
Размер: 1446.65 Mb ( 1 516 922 880 bytes )
Продолжительность: 01:33:44.959 (140624 frames)
Видео: 640x480 (1.33:1), 25 fps, DivX Codec 5.02 build 484 ~2015 kbps avg, 0.26 bit/pixel
Звук: 48 kHz, MPEG Layer 3, 1 ch, ~128.00 kbps avg
Качество: VHS-Rip
Рип предоставлен: Runner & Kokosov
Афишка: Juffin
афишка
1-я 1/8 финала (50 на 50 - Самарский самолёт - сб. ЛГПИ - Уральские Пельмени - Новые армяне)
Файл: KVN.1996.(02).1.1-8.www.kvnforall.info.avi
Размер: 741 Mb ( 777 828 352 bytes )
Продолжительность: 1:20:21 (120503 frames)
Видео: 640x480, 25 fps, DivX Codec (4/5/6) ~1201 kbps avg, 0.156 bit/pixel
Звук: 48 kHz, MPEG Layer 3, 1 ch, ~80.00 kbps avg
Качество: VHS-Rip
Рип предоставлен: DiJem
афишка
2-я 1/8 финала (Ворошиловские стрелки - Иркутские декабристы - Махачкалинские бродяги - сб. СПбУЭиФ - сб. БГУ - Настоящие тамады)
Файл: KVN.1996.(03).2.1-8.www.kvnforall.info.avi
Размер: 695 Mb ( 728 803 328 bytes )
Продолжительность: 1:18:01 (117004 frames)
Видео: 560x420, 25 fps, DivX Codec (4/5/6) ~1175 kbps avg, 0.200 bit/pixel
Звук: 44.1 kHz, MPEG Layer 3, 1 ch, ~64.00 kbps avg
Качество: VHS-Rip
Рип предоставлен: DiJem
Афишка: gabul
афишка
1-я 1/4 финала (Уральские пельмени - сб. СПбУЭиФ - Новые армяне - Запорожье-Кривой рог-Транзит)
Файл: KVN.1996.(04).1.1-4.www.kvnforall.info.avi
Размер: 1336 Mb ( 1 401 709 464 bytes )
Продолжительность: 01:08:14 (102372 frames)
Видео: 640x480, 25 fps, DivX Codec (4/5/6) ~2674 kbps avg, 0.36 bit/pixel
Звук: 48 kHz, MPEG Layer 3, 1 ch, ~64.00 kbps avg
Качество: VHS-Rip
Рип предоставлен: Runner & KoKosov & krash
Афишка: Олимпиец
афишка
2-я 1/4 финала (сб. БГУ - Ворошиловские стрелки - Махачкалинские бродяги - Иркутские декабристы)
Файл: KVN.1996.(05).2.1-4.www.kvnforall.info
Размер: 700 Mb ( 734 112 444 bytes )
Продолжительность: 1:06:48 (100175 frames)
Видео: 640х480 (1.33:1), 25 fps, DivX Codec 5.x ~1391 kbps avg, 0.181 bit/pixel
Звук: 48 kHz, MPEG Layer 3, 1 ch, ~64.00 kbps avg
Качество: VHS-Rip
Рип предостален: Runner & KoKosov & krash
Афишка: Brox
афишка
Голосящий КиВиН в Юрмале (музыкальный фестиваль)
Файл: KVN.1996.(06).Jurmala.www.kvnforall.info.avi
Размер: 679 Mb ( 712 622 080 bytes )
Продолжительность: 01:26:09.24 (129231 frames)
Видео: 560x420 (1.33:1), 25 fps, DivX Codec 5.0 ~1031 kbps avg, 0.18 bit/pixel
Аудио: 44.1 kHz, MPEG Layer 3, 1 ch, ~64.00 kbps avg
Качество: VHS-Rip
Рип предоставлен: DiJem & krash
Афишка: Олимпиец
афишка
Летний Кубок (Эскадрон Гусар - сб. ХАИ)
Файл: KVN.1996.(07).Letnij.kubok.www.kvnforall.info.avi
Размер: 682 Mb ( 715 767 808 bytes )
Продолжительность: 1:31:54 (137847 frames)
Видео: 640x480 (1.33:1), 25 fps, DivX Codec 5.x or 6.x ~900 kbps avg, 0.117 bit/pixel
Звук: 44,1 kHz, MPEG Layer 3, 2 ch, ~128.00 kbps avg
Качество: SAT-Rip
Рип предоставлен: Hechkim
Афишка: Juffin
афишка
1-й полуфинал (Махачкалинские бродяги - Новые армяне)
Файл: KVN.1996.(08).1.Polufinal.www.kvnforall.info.avi
Размер: 746 Mb ( 783 171 584 bytes )
Продолжительность: 1:35:25 (143117 frames)
Видео: 560x420 (1.33:1), 25 fps, DivX Codec 5.x ~1020 kbps avg, 0.173 bit/pixel
Звук: 44.1 kHz, MPEG Layer 3, 1 ch, ~64.00 kbps avg
Качество: TV-Rip
Рип предоставлен: DiJem
афишка
2-й полуфинал (cб. БГУ - Запорожье-Кривой Рог-Транзит)
Файл: KVN.1996.(09).2.Polufinal.www.kvnforall.info.avi
Размер: 754 Mb ( 791 005 184 bytes )
Продолжительность: 1:25:27 (128160 frames)
Видео: 560x420 (1.33:1), 25 fps, DivX Codec 5.x ~1160 kbps avg, 0.197 bit/pixel
Звук: 44.1 kHz, MPEG Layer 3, 1 ch, ~64.00 kbps avg
Качество: TV-Rip
Рип предоставлен: DiJem
афишка
Спецпроект. КВНу - 35 лет!
Команды: "Фениксята" (Московский учебно-воспитательный комплекс "Феникс"), Харьковский Университет Внутренних дел, Ташкентский политехнический университет, "Настоящие тамады" (Тбилиси), Леонид Парфенов, "Парэкс" (Рига), "Новые армяне" (Ереван), Иван Демидов+Игорь Верник+Богдан Титомир+Лена Зосимова, "Парни из Баку", "Запорожье - Кривой Рог - Транзит", Ян Левинзон, Ереванский медицинский институт, "Эскадрон гусар", "Красная бурда", Сергей Сивохо, Донецкий Политехнический институт, Уральский Политехнический инстистут, Геннадий Хазанов, Одесский Государственный университет, Новосибирский Государственный университет, сборная СНГ.
Файл: KVN.1996.(10).35.let.KVN.www.kvnforall.info.avi
Размер: 1244.56 Mb ( 1 305 013 954 bytes )
Продолжительность: 02:26:06.919 (219173 frames)
Видео: 576x432 (1.33:1), 25 fps, DivX Codec 5.2.1 build 1328 ~1101 kbps avg, 0.18 bit/pixel
Звук: 48 kHz, MPEG Layer 3, 1 ch, ~80.00 kbps avg
Качество: VHS-Rip
Рип предоставлен: DiJem & Deduska
Афишка: Natasha Specht
афишка
Финал (сб. БГУ - Махачкалинские бродяги)
Файл: KVN.1996.(11).Final.www.kvnforall.info.avi
Размер: 675 Mb ( 708 610 048 bytes )
Продолжительность: 1:23:30 (125226 frames)
Видео: 640x480 (1.33:1), 25 fps, DivX Codec 5.x ~994 kbps avg, 0.129 bit/pixel
Звук: 44.1 kHz, MPEG Layer 3, 2 ch, ~128.00 kbps avg
Качество: SAT-Rip
Рип предоставлен: Hechkim
Афишка: Saturn
афишка
Международная игра (сб. СНГ - сб. Израиля)
Файл: KVN.1996.(12).SNG.Israel.www.kvnforall.info.avi
Размер: 448 Mb ( 470 673 408 bytes )
Продолжительность: 00:53:26 (80160 frames)
Видео: 640x480 (1.33:1), 25 fps, DivX Codec 5.0 ~1102 kbps avg, 0.14 bit/pixel
Аудио: 48 kHz, MPEG Layer 3, 1 ch, ~64.00 kbps avg
Качество: VHS-Rip
Рип предоставлен: DiJem & krash
Афишка: Олимпиец
афишка

Скриншоты

КиВиН в Сочи

1-я 1/8 финала

2-я 1/8 финала

1-я 1/4 финала

2-я 1/4 финала

Голосящий КиВиН в Юрмале

Летний Кубок

1-й полуфинал

2-й полуфинал

Спецпроект. КВНу - 35 лет!

Финал

Международная игра

MediaInfo

КиВиН в Сочи

General
Format : AVI
Format/Info : Audio Video Interleave
File size : 1.41 GiB
Duration : 1 h 33 min
Overall bit rate : 2 157 kb/s
Writing application : Nandub v1.0rc2
Writing library : Nandub build 1853/release
Video
ID : 0
Format : MPEG-4 Visual
Format settings, BVOP : Yes
Format settings, QPel : No
Format settings, GMC : No warppoints
Format settings, Matrix : Default (H.263)
Codec ID : DX50
Codec ID/Hint : DivX 5
Duration : 1 h 33 min
Bit rate : 2 017 kb/s
Width : 640 pixels
Height : 480 pixels
Display aspect ratio : 4:3
Frame rate : 25.000 FPS
Color space : YUV
Chroma subsampling : 4:2:0
Bit depth : 8 bits
Scan type : Progressive
Compression mode : Lossy
Bits/(Pixel*Frame) : 0.263
Stream size : 1.32 GiB (93%)
Writing library : DivX 5.0.2 (UTC 2002-05-16)
Audio
ID : 1
Format : MPEG Audio
Format version : Version 1
Format profile : Layer 3
Codec ID : 55
Codec ID/Hint : MP3
Duration : 1 h 33 min
Bit rate mode : Constant
Bit rate : 128 kb/s
Channel(s) : 1 channel
Sampling rate : 48.0 kHz
Compression mode : Lossy
Stream size : 85.8 MiB (6%)
Alignment : Aligned on interleaves
Interleave, duration : 24 ms (0.60 video frame)
Interleave, preload duration : 480 ms

1-я 1/8 финала

General
Format : AVI
Format/Info : Audio Video Interleave
File size : 742 MiB
Duration : 1 h 20 min
Overall bit rate : 1 291 kb/s
Writing application : VirtualDubMod 1.5.10.1 (build 2366/release)
Writing library : VirtualDubMod build 2366/release
Video
ID : 0
Format : MPEG-4 Visual
Format settings, BVOP : 1
Format settings, QPel : No
Format settings, GMC : No warppoints
Format settings, Matrix : Default (H.263)
Muxing mode : Packed bitstream
Codec ID : DX50
Codec ID/Hint : DivX 5
Duration : 1 h 20 min
Bit rate : 1 201 kb/s
Nominal bit rate : 896 kb/s
Width : 640 pixels
Height : 480 pixels
Display aspect ratio : 4:3
Frame rate : 25.000 FPS
Color space : YUV
Chroma subsampling : 4:2:0
Bit depth : 8 bits
Scan type : Progressive
Compression mode : Lossy
Bits/(Pixel*Frame) : 0.156
Stream size : 690 MiB (93%)
Writing library : DivX 5.2.1 (WaffleDay) (UTC 2004-09-08)
Audio
ID : 1
Format : MPEG Audio
Format version : Version 1
Format profile : Layer 3
Codec ID : 55
Codec ID/Hint : MP3
Duration : 1 h 20 min
Bit rate mode : Constant
Bit rate : 80.0 kb/s
Channel(s) : 1 channel
Sampling rate : 48.0 kHz
Compression mode : Lossy
Stream size : 46.0 MiB (6%)
Alignment : Aligned on interleaves
Interleave, duration : 40 ms (1.00 video frame)
Interleave, preload duration : 504 ms
Writing library : LAME4.0a
Encoding settings : -m m -V 4 -q 2 -lowpass 13.6 -b 80

2-я 1/8 финала

General
Format : AVI
Format/Info : Audio Video Interleave
File size : 695 MiB
Duration : 1 h 18 min
Overall bit rate : 1 246 kb/s
Writing application : Nandub v2.01 The advanced compression technology is developed by Neiromaster
Writing library : Nandub 2.01 modified by Neiromaster
Video
ID : 0
Format : MPEG-4 Visual
Format settings, BVOP : 1
Format settings, QPel : No
Format settings, GMC : No warppoints
Format settings, Matrix : Default (H.263)
Muxing mode : Packed bitstream
Codec ID : DX50
Codec ID/Hint : DivX 5
Duration : 1 h 18 min
Bit rate : 1 176 kb/s
Nominal bit rate : 11.8 Mb/s
Width : 560 pixels
Height : 420 pixels
Display aspect ratio : 4:3
Frame rate : 25.000 FPS
Color space : YUV
Chroma subsampling : 4:2:0
Bit depth : 8 bits
Scan type : Progressive
Compression mode : Lossy
Bits/(Pixel*Frame) : 0.200
Stream size : 656 MiB (94%)
Writing library : DivX 5.1.1 (Maupiti) (UTC 2003-11-19)
Audio
ID : 1
Format : MPEG Audio
Format version : Version 1
Format profile : Layer 3
Codec ID : 55
Codec ID/Hint : MP3
Duration : 1 h 18 min
Bit rate mode : Constant
Bit rate : 64.0 kb/s
Channel(s) : 1 channel
Sampling rate : 44.1 kHz
Compression mode : Lossy
Delay relative to video : 250 ms
Stream size : 35.7 MiB (5%)
Alignment : Split accross interleaves
Interleave, duration : 200 ms (5.00 video frames)
Interleave, preload duration : 200 ms
Writing library : LAME3.90
Encoding settings : -m m -V 4 -q 2 -lowpass 13.7 -b 64

1-я 1/4 финала

General
Format : AVI
Format/Info : Audio Video Interleave
File size : 1.31 GiB
Duration : 1 h 8 min
Overall bit rate : 2 738 kb/s
Movie name : High_1996.(04)._1_1-4
Director : Runner
Written by : АМИК
Distributed by : www.kvnforall.info
Genre : юмористический
Law rating : не проходило оценку
Original source form/Name : телепередача
Copyright : DA
Video
ID : 0
Format : MPEG-4 Visual
Format settings, BVOP : Yes
Format settings, QPel : No
Format settings, GMC : No warppoints
Format settings, Matrix : Default (H.263)
Codec ID : DX50
Codec ID/Hint : DivX 5
Duration : 1 h 8 min
Bit rate : 2 665 kb/s
Width : 640 pixels
Height : 480 pixels
Display aspect ratio : 4:3
Frame rate : 25.000 FPS
Color space : YUV
Chroma subsampling : 4:2:0
Bit depth : 8 bits
Scan type : Progressive
Compression mode : Lossy
Bits/(Pixel*Frame) : 0.347
Stream size : 1.27 GiB (97%)
Writing library : DivX 5.0.2 (UTC 2002-05-16)
Audio
ID : 1
Format : MPEG Audio
Format version : Version 1
Format profile : Layer 3
Codec ID : 55
Codec ID/Hint : MP3
Duration : 1 h 8 min
Bit rate mode : Constant
Bit rate : 64.0 kb/s
Channel(s) : 1 channel
Sampling rate : 48.0 kHz
Compression mode : Lossy
Stream size : 31.2 MiB (2%)
Alignment : Split accross interleaves
Interleave, duration : 40 ms (1.00 video frame)
Interleave, preload duration : 500 ms
Language : Не определен

2-я 1/4 финала

General
Format : AVI
Format/Info : Audio Video Interleave
File size : 700 MiB
Duration : 1 h 6 min
Overall bit rate : 1 466 kb/s
Movie name : High_1996.(05)._2_1-4
Director : Runner
Written by : АМИК
Distributed by : www.kvnforall.info
Genre : юмористический
Law rating : не проходило оценку
Original source form/Name : телепередача
Copyright : DA
Video
ID : 0
Format : MPEG-4 Visual
Format settings, BVOP : Yes
Format settings, QPel : No
Format settings, GMC : No warppoints
Format settings, Matrix : Default (H.263)
Codec ID : DX50
Codec ID/Hint : DivX 5
Duration : 1 h 6 min
Bit rate : 1 396 kb/s
Width : 640 pixels
Height : 480 pixels
Display aspect ratio : 4:3
Frame rate : 25.000 FPS
Color space : YUV
Chroma subsampling : 4:2:0
Bit depth : 8 bits
Scan type : Progressive
Compression mode : Lossy
Bits/(Pixel*Frame) : 0.182
Stream size : 667 MiB (95%)
Writing library : DivX 5.0.2 (UTC 2002-05-16)
Audio
ID : 1
Format : MPEG Audio
Format version : Version 1
Format profile : Layer 3
Codec ID : 55
Codec ID/Hint : MP3
Duration : 1 h 6 min
Source duration : 1 h 6 min
Bit rate mode : Constant
Bit rate : 64.0 kb/s
Channel(s) : 1 channel
Sampling rate : 48.0 kHz
Compression mode : Lossy
Stream size : 30.6 MiB (4%)
Alignment : Split accross interleaves
Interleave, duration : 40 ms (1.00 video frame)
Interleave, preload duration : 423 ms
Language : Не определен

Голосящий КиВиН в Юрмале

General
Format : AVI
Format/Info : Audio Video Interleave
File size : 680 MiB
Duration : 1 h 26 min
Overall bit rate : 1 103 kb/s
Director : DiJEM
Writing application : Nandub v1.0rc2
Writing library : Nandub build 1853/release
Video
ID : 0
Format : MPEG-4 Visual
Format settings, BVOP : 1
Format settings, QPel : No
Format settings, GMC : No warppoints
Format settings, Matrix : Default (H.263)
Muxing mode : Packed bitstream
Codec ID : DX50
Codec ID/Hint : DivX 5
Duration : 1 h 26 min
Bit rate : 1 026 kb/s
Width : 560 pixels
Height : 420 pixels
Display aspect ratio : 4:3
Frame rate : 25.000 FPS
Color space : YUV
Chroma subsampling : 4:2:0
Bit depth : 8 bits
Scan type : Progressive
Compression mode : Lossy
Bits/(Pixel*Frame) : 0.175
Stream size : 632 MiB (93%)
Writing library : DivX 5.0.5 (UTC 2003-04-24)
Audio
ID : 1
Format : MPEG Audio
Format version : Version 1
Format profile : Layer 3
Codec ID : 55
Codec ID/Hint : MP3
Duration : 1 h 26 min
Bit rate mode : Constant
Bit rate : 64.0 kb/s
Channel(s) : 1 channel
Sampling rate : 44.1 kHz
Compression mode : Lossy
Delay relative to video : 23 ms
Stream size : 39.4 MiB (6%)
Alignment : Aligned on interleaves
Interleave, duration : 26 ms (0.65 video frame)
Interleave, preload duration : 624 ms

Летний Кубок

General
Format : AVI
Format/Info : Audio Video Interleave
File size : 683 MiB
Duration : 1 h 31 min
Overall bit rate : 1 038 kb/s
Writing library : VirtualDub build 18160/release
Video
ID : 0
Format : MPEG-4 Visual
Format settings, BVOP : 1
Format settings, QPel : No
Format settings, GMC : No warppoints
Format settings, Matrix : Default (H.263)
Muxing mode : Packed bitstream
Codec ID : DX50
Codec ID/Hint : DivX 5
Duration : 1 h 31 min
Bit rate : 901 kb/s
Nominal bit rate : 4 000 kb/s
Width : 640 pixels
Height : 480 pixels
Display aspect ratio : 4:3
Frame rate : 25.000 FPS
Color space : YUV
Chroma subsampling : 4:2:0
Bit depth : 8 bits
Scan type : Progressive
Compression mode : Lossy
Bits/(Pixel*Frame) : 0.117
Stream size : 592 MiB (87%)
Writing library : DivX 5.0.5 Beta(Tahanea) (UTC 2003-01)
Audio
ID : 1
Format : MPEG Audio
Format version : Version 1
Format profile : Layer 3
Codec ID : 55
Codec ID/Hint : MP3
Duration : 1 h 31 min
Bit rate mode : Constant
Bit rate : 128 kb/s
Channel(s) : 2 channels
Sampling rate : 44.1 kHz
Compression mode : Lossy
Stream size : 84.1 MiB (12%)
Alignment : Split accross interleaves
Interleave, duration : 40 ms (1.00 video frame)
Interleave, preload duration : 500 ms

1-й полуфинал

General
Format : AVI
Format/Info : Audio Video Interleave
File size : 747 MiB
Duration : 1 h 35 min
Overall bit rate : 1 094 kb/s
Writing application : VirtualDubMod 1.5.10.1 (build 2366/release)
Writing library : VirtualDubMod build 2366/release
Video
ID : 0
Format : MPEG-4 Visual
Format settings, BVOP : 1
Format settings, QPel : No
Format settings, GMC : No warppoints
Format settings, Matrix : Default (H.263)
Muxing mode : Packed bitstream
Codec ID : DX50
Codec ID/Hint : DivX 5
Duration : 1 h 35 min
Bit rate : 1 021 kb/s
Nominal bit rate : 10.2 Mb/s
Width : 560 pixels
Height : 420 pixels
Display aspect ratio : 4:3
Frame rate : 25.000 FPS
Color space : YUV
Chroma subsampling : 4:2:0
Bit depth : 8 bits
Scan type : Progressive
Compression mode : Lossy
Bits/(Pixel*Frame) : 0.174
Stream size : 697 MiB (93%)
Writing library : DivX 5.1.1 (Maupiti) (UTC 2003-11-19)
Audio
ID : 1
Format : MPEG Audio
Format version : Version 1
Format profile : Layer 3
Codec ID : 55
Codec ID/Hint : MP3
Duration : 1 h 35 min
Bit rate mode : Constant
Bit rate : 64.0 kb/s
Channel(s) : 1 channel
Sampling rate : 44.1 kHz
Compression mode : Lossy
Stream size : 43.7 MiB (6%)
Alignment : Split accross interleaves
Interleave, duration : 40 ms (1.00 video frame)
Interleave, preload duration : 500 ms
Writing library : LAME3.90
Encoding settings : -m m -V 4 -q 2 -lowpass 13.7 -b 64

2-й полуфинал

General
Format : AVI
Format/Info : Audio Video Interleave
File size : 754 MiB
Duration : 1 h 25 min
Overall bit rate : 1 234 kb/s
Writing application : VirtualDubMod 1.5.10.1 (build 2366/release)
Writing library : VirtualDubMod build 2366/release
Video
ID : 0
Format : MPEG-4 Visual
Format settings, BVOP : 1
Format settings, QPel : No
Format settings, GMC : No warppoints
Format settings, Matrix : Default (H.263)
Muxing mode : Packed bitstream
Codec ID : DX50
Codec ID/Hint : DivX 5
Duration : 1 h 25 min
Bit rate : 1 161 kb/s
Nominal bit rate : 11.6 Mb/s
Width : 560 pixels
Height : 420 pixels
Display aspect ratio : 4:3
Frame rate : 25.000 FPS
Color space : YUV
Chroma subsampling : 4:2:0
Bit depth : 8 bits
Scan type : Progressive
Compression mode : Lossy
Bits/(Pixel*Frame) : 0.197
Stream size : 709 MiB (94%)
Writing library : DivX 5.1.1 (Maupiti) (UTC 2003-11-19)
Audio
ID : 1
Format : MPEG Audio
Format version : Version 1
Format profile : Layer 3
Codec ID : 55
Codec ID/Hint : MP3
Duration : 1 h 25 min
Bit rate mode : Constant
Bit rate : 64.0 kb/s
Channel(s) : 1 channel
Sampling rate : 44.1 kHz
Compression mode : Lossy
Stream size : 39.1 MiB (5%)
Alignment : Split accross interleaves
Interleave, duration : 40 ms (1.00 video frame)
Interleave, preload duration : 500 ms
Writing library : LAME3.90
Encoding settings : -m m -V 4 -q 2 -lowpass 13.7 -b 64

Спецпроект. КВНу - 35 лет!

General
Format : AVI
Format/Info : Audio Video Interleave
File size : 1.22 GiB
Duration : 2 h 26 min
Overall bit rate : 1 191 kb/s
Writing application : VirtualDubMod 1.5.10.1 (build 2366/release)
Writing library : VirtualDub build 23567/release
Video
ID : 0
Format : MPEG-4 Visual
Format settings, BVOP : 1
Format settings, QPel : No
Format settings, GMC : No warppoints
Format settings, Matrix : Default (H.263)
Muxing mode : Packed bitstream
Codec ID : DX50
Codec ID/Hint : DivX 5
Duration : 2 h 26 min
Bit rate : 1 101 kb/s
Nominal bit rate : 12.0 Mb/s
Width : 576 pixels
Height : 432 pixels
Display aspect ratio : 4:3
Frame rate : 25.000 FPS
Color space : YUV
Chroma subsampling : 4:2:0
Bit depth : 8 bits
Scan type : Progressive
Compression mode : Lossy
Bits/(Pixel*Frame) : 0.177
Stream size : 1.12 GiB (92%)
Writing library : DivX 5.2.1 (WaffleDay) (UTC 2004-09-08)
Audio
ID : 1
Format : MPEG Audio
Format version : Version 1
Format profile : Layer 3
Codec ID : 55
Codec ID/Hint : MP3
Duration : 2 h 26 min
Bit rate mode : Constant
Bit rate : 80.0 kb/s
Channel(s) : 1 channel
Sampling rate : 48.0 kHz
Compression mode : Lossy
Stream size : 83.6 MiB (7%)
Alignment : Aligned on interleaves
Interleave, duration : 40 ms (1.00 video frame)
Interleave, preload duration : 504 ms
Writing library : LAME4.0a
Encoding settings : -m m -V 4 -q 2 -lowpass 13.6 -b 80

Финал

General
Format : AVI
Format/Info : Audio Video Interleave
File size : 676 MiB
Duration : 1 h 23 min
Overall bit rate : 1 132 kb/s
Writing application : VirtualDubMod 1.5.10.1 (build 2366/release)
Writing library : VirtualDubMod build 2366/release
Video
ID : 0
Format : MPEG-4 Visual
Format settings, BVOP : 1
Format settings, QPel : No
Format settings, GMC : No warppoints
Format settings, Matrix : Default (H.263)
Muxing mode : Packed bitstream
Codec ID : DX50
Codec ID/Hint : DivX 5
Duration : 1 h 23 min
Bit rate : 994 kb/s
Width : 640 pixels
Height : 480 pixels
Display aspect ratio : 4:3
Frame rate : 25.000 FPS
Color space : YUV
Chroma subsampling : 4:2:0
Bit depth : 8 bits
Scan type : Progressive
Compression mode : Lossy
Bits/(Pixel*Frame) : 0.129
Stream size : 594 MiB (88%)
Writing library : DivX 5.0.5 Beta(Tahanea) (UTC 2003-01)
Audio
ID : 1
Format : MPEG Audio
Format version : Version 1
Format profile : Layer 3
Codec ID : 55
Codec ID/Hint : MP3
Duration : 1 h 23 min
Bit rate mode : Constant
Bit rate : 128 kb/s
Channel(s) : 2 channels
Sampling rate : 44.1 kHz
Compression mode : Lossy
Delay relative to video : 7 ms
Stream size : 76.4 MiB (11%)
Alignment : Split accross interleaves
Interleave, duration : 40 ms (1.00 video frame)
Interleave, preload duration : 500 ms

Международная игра

General
Format : AVI
Format/Info : Audio Video Interleave
File size : 449 MiB
Duration : 53 min 26 s
Overall bit rate mode : Variable
Overall bit rate : 1 174 kb/s
Writing application : Nandub v1.0rc2
Writing library : Nandub build 1853/release
Video
ID : 0
Format : MPEG-4 Visual
Format settings, BVOP : 1
Format settings, QPel : No
Format settings, GMC : No warppoints
Format settings, Matrix : Default (H.263)
Muxing mode : Packed bitstream
Codec ID : DX50
Codec ID/Hint : DivX 5
Duration : 53 min 26 s
Bit rate : 1 097 kb/s
Nominal bit rate : 6 951 kb/s
Width : 640 pixels
Height : 480 pixels
Display aspect ratio : 4:3
Frame rate : 25.000 FPS
Color space : YUV
Chroma subsampling : 4:2:0
Bit depth : 8 bits
Scan type : Progressive
Compression mode : Lossy
Bits/(Pixel*Frame) : 0.143
Stream size : 419 MiB (93%)
Writing library : DivX 5.2.1 (WaffleDay) (UTC 2004-09-08)
Audio
ID : 1
Format : MPEG Audio
Format version : Version 1
Format profile : Layer 3
Codec ID : 55
Codec ID/Hint : MP3
Duration : 53 min 26 s
Bit rate mode : Variable
Bit rate : 64.0 kb/s
Channel(s) : 1 channel
Sampling rate : 48.0 kHz
Compression mode : Lossy
Stream size : 24.5 MiB (5%)
Alignment : Aligned on interleaves
Interleave, duration : 24 ms (0.60 video frame)
Interleave, preload duration : 498 ms
Writing library : Gogo >=3.0
Команда желает вам веселого просмотра!
[cybertorrent.ru].t808.torrent 
Торрент: Зарегистрирован [ 2018-02-15 22:25 ] · A5C370C59306F733E3AA9476DB626DBA122E9EF0

Скачать .torrent

Скачать

51 KB

Статус: проверено
Скачан: 0 раз
Размер: 9,92 GB
Профиль [ЛС]
Показать сообщения:    

Текущее время: 27-Май 01:39

Часовой пояс: UTC ± 0



Вы не можете начинать темы
Вы не можете отвечать на сообщения
Вы не можете редактировать свои сообщения
Вы не можете удалять свои сообщения
Вы не можете голосовать в опросах
Вы не можете прикреплять файлы к сообщениям
Вы можете скачивать файлы