Статистика раздачи
Размер:  1,41 GB   |    Зарегистрирован:  1 месяц 6 дней   |    Скачан:  0 раз
Сидов:  11  [  0 KB/s  ]  
 
     
 
 

Floyd ®

Пол:
Мужской
Стаж:
7 месяцев 25 дней
Сообщений:
1521

Вселенная Стивена / Steven Universe: The Movie
Страна: США
Жанр: мюзикл, фантастика, фэнтези, приключения, семейный
Продолжительность: 01:22:00
Год выпуска: 2019
Перевод: Любительский (многоголосый закадровый) NewStation
Русские субтитры: есть
Режиссёр: Ребекка Шуга / Rebecca Sugar
Роли озвучивали: Зак Каллисон, Эстелль, Михаэлла Дитц, Диди Мано, Том Шарплинг, Грэйс Ролек, Мэттью Мой, Кейт Микуччи, Шелби Рабара, Дженнифер Пас
Описание: Стивен думал, что времена спасения Земли уже позади, однако в Пляжном городе появляется новая угроза и ему предстоит преодолеть самое сложное испытание.
Качество: WEBRip 720p
Формат: MKV
Видео: AVC, 1280x720, 23 976 кадров/сек, ~1160 Кбит/сек
Аудио #1: [RUS] 48 kHz, AC-3, 6ch, 640 Кбит/сек
Аудио #2: [ENG] 48 kHz, AC-3, 6ch, 640 Кбит/сек
Субтитры: Русские (Т. О. SUBOne, отдельно полные и отдельно на песни), английские

Подробные технические данные

Общее
Уникальный идентификатор : 23855861967988626196139421795750834326 (0x11F278CDDECD4EDFC8AFF3A1F17CF096)
Полное имя : F:\NewStation\Полный метр\Steven.Universe.The.Movie.2019.720p.WEBRip.NewStation.mkv
Формат : Matroska
Версия формата : Version 4 / Version 2
Размер файла : 1,41 Гбайт
Продолжительность : 1 ч. 22 м.
Общий поток : 2443 Кбит/сек
Дата кодирования : UTC 2019-09-16 17:51:56
Программа кодирования : mkvmerge v28.1.0 ('Morning Child') 64-bit
Библиотека кодирования : libebml v1.3.6 + libmatroska v1.4.9
Видео
Идентификатор : 1
Формат : AVC
Формат/Информация : Advanced Video Codec
Профиль формата : High@L3.1
Настройки формата : CABAC / 5 Ref Frames
Параметр CABAC формата : Да
Параметр RefFrames формата : 5 кадров
Идентификатор кодека : V_MPEG4/ISO/AVC
Продолжительность : 1 ч. 22 м.
Битрейт : 1160 Кбит/сек
Ширина : 1280 пикселей
Высота : 720 пикселей
Соотношение сторон : 16:9
Режим частоты кадров : Постоянный
Частота кадров : 23,976 (24000/1001) кадра/сек
Цветовое пространство : YUV
Субдискретизация насыщенности : 4:2:0
Битовая глубина : 8 бит
Тип развёртки : Прогрессивная
Бит/(Пиксели*Кадры) : 0.053
Размер потока : 687 Мбайт (47%)
Default : Да
Forced : Нет
Цветовой диапазон : Limited
Основные цвета : BT.709
Характеристики трансфера : BT.709
Коэффициенты матрицы : BT.709
Аудио #1
Идентификатор : 2
Формат : AC-3
Формат/Информация : Audio Coding 3
Идентификатор кодека : A_AC3
Продолжительность : 1 ч. 22 м.
Вид битрейта : Постоянный
Битрейт : 640 Кбит/сек
Каналы : 6 каналов
Расположение каналов : Front: L C R, Side: L R, LFE
Частота : 48,0 КГц
Частота кадров : 31,250 кадров/сек (1536 SPF)
Битовая глубина : 16 бит
Метод сжатия : С потерями
Размер потока : 379 Мбайт (26%)
Заголовок : NewStation
Язык : Russian
ServiceKind/String : Complete Main
Default : Да
Forced : Нет
Аудио #2
Идентификатор : 3
Формат : AC-3
Формат/Информация : Audio Coding 3
Идентификатор кодека : A_AC3
Продолжительность : 1 ч. 22 м.
Вид битрейта : Постоянный
Битрейт : 640 Кбит/сек
Каналы : 6 каналов
Расположение каналов : Front: L C R, Side: L R, LFE
Частота : 48,0 КГц
Частота кадров : 31,250 кадров/сек (1536 SPF)
Битовая глубина : 16 бит
Метод сжатия : С потерями
Размер потока : 379 Мбайт (26%)
Заголовок : Original
Язык : English
ServiceKind/String : Complete Main
Default : Нет
Forced : Нет
Текст #1
Идентификатор : 4
Формат : ASS
Идентификатор кодека : S_TEXT/ASS
Идентификатор кодека/Информация : Advanced Sub Station Alpha
Продолжительность : 1 ч. 22 м.
Битрейт : 54 бит/сек
ElementCount : 433
Метод сжатия : Без потерь
Размер потока : 32,9 Кбайт (0%)
Заголовок : Т. О. SUBOne (Песни)
Язык : Russian
Default : Нет
Forced : Нет
Текст #2
Идентификатор : 5
Формат : ASS
Идентификатор кодека : S_TEXT/ASS
Идентификатор кодека/Информация : Advanced Sub Station Alpha
Продолжительность : 1 ч. 22 м.
Битрейт : 168 бит/сек
ElementCount : 1407
Метод сжатия : Без потерь
Размер потока : 102 Кбайт (0%)
Заголовок : Т. О. SUBOne (Полные)
Язык : Russian
Default : Нет
Forced : Нет
Текст #3
Идентификатор : 6
Формат : UTF-8
Идентификатор кодека : S_TEXT/UTF8
Идентификатор кодека/Информация : UTF-8 Plain Text
Продолжительность : 1 ч. 22 м.
Битрейт : 75 бит/сек
ElementCount : 1586
Размер потока : 45,4 Кбайт (0%)
Заголовок : English
Язык : English
Default : Нет
Forced : Нет
Текст #4
Идентификатор : 7
Формат : UTF-8
Идентификатор кодека : S_TEXT/UTF8
Идентификатор кодека/Информация : UTF-8 Plain Text
Продолжительность : 1 ч. 22 м.
Битрейт : 78 бит/сек
ElementCount : 1691
Размер потока : 47,6 Кбайт (0%)
Заголовок : English [SDH]
Язык : English
Default : Нет
Forced : Нет

Скриншоты

[cybertorrent.ru].t8087.torrent 
Торрент: Зарегистрирован [ 2019-10-16 18:23 ] · 241FA42D67355718C9DD71E6F0B5B2459D77361E

Скачать .torrent

Скачать

15 KB

Статус: проверено
Скачан: 0 раз
Размер: 1,41 GB
terms.php
Профиль [ЛС]
Показать сообщения:    

Текущее время: 23-Ноя 01:45

Часовой пояс: UTC ± 0



Вы не можете начинать темы
Вы не можете отвечать на сообщения
Вы не можете редактировать свои сообщения
Вы не можете удалять свои сообщения
Вы не можете голосовать в опросах
Вы не можете прикреплять файлы к сообщениям
Вы можете скачивать файлы