Статистика раздачи
Размер:  702 MB   |    Зарегистрирован:  3 месяца 11 дней   |    Скачан:  0 раз

Полного источника не было: Никогда

Личеров:  1  [  0 KB/s  ]  
 
   
 
 

lopster ®

Пол:
Не указан
Стаж:
3 месяца 11 дней
Сообщений:
612

Живи и помни
Год выпуска: 2008
Жанр: Драма
Продолжительность: 01:40:15
Режиссер: Александр Прошкин
В ролях: Сергей Бехтерев, Дарья Мороз, Анна Михалкова, Сергей Маковецкий, Евгения Глушенко, Дарья Екамасова, Михаил Евланов, Тамара Цыганова, Наталья Тетенова
Описание: По мотивам повести Валентина Распутина.
В последний год войны в родную деревню возвращается Андрей. Но возвращается не героем, а дезертиром, не доехавшим после ранения из госпиталя в свою воинскую часть. О том, что Андрей вернулся, знает только один человек - жена Настя - единственная, кому Андрей может доверить свою жизнь. Настя вынуждена скрывать мужа даже от родных, лишь изредка навещая его в укрытии. Андрей теперь - вечный беглец, обреченный на одиночество. Со временем Настя узнает, что ждет ребенка. Для всей деревни она - неверная супруга, не дождавшаяся мужа.
Все раздачи фильма: Живи и помни
Доп. информация: Источник DVD-9 Скачать семпл
Качество: DVDRip
Формат: AVI
Видео кодек: XviD
Аудио кодек: MP3
Видео: XVID 688x384 25.00fps 841Kbps
Аудио: MPEG Audio Layer 3 48000Hz stereo 128Kbps

MI

Код:Общее
Полное имя : C:\otkat\Видео\Живи и помни\Zhivi.i.pomni.2008.DVDRip.avi
Формат : AVI
Формат/Информация : Audio Video Interleave
Размер файла : 702 Мбайт
Продолжительность : 1 ч. 40 м.
Общий поток : 979 Кбит/сек
Программа кодирования : VirtualDubMod 1.5.10.2 (build 2540/release)
Библиотека кодирования : VirtualDubMod build 2540/release
Видео
Идентификатор : 0
Формат : MPEG-4 Visual
Профиль формата : Advanced Simple@L5
Параметр BVOP формата : 1
Параметр QPel формата : Нет
Параметр GMC формата : Без точки перехода
Параметр матрицы формата : Default (H.263)
Идентификатор кодека : XVID
Идентификатор кодека/Подсказка : XviD
Продолжительность : 1 ч. 40 м.
Битрейт : 842 Кбит/сек
Ширина : 688 пикселей
Высота : 384 пикселя
Соотношение сторон : 16:9
Частота кадров : 25,000 кадров/сек
Цветовое пространство : YUV
Субдискретизация насыщенности : 4:2:0
Битовая глубина : 8 бит
Тип развёртки : Прогрессивная
Метод сжатия : С потерями
Бит/(Пиксели*Кадры) : 0.127
Размер потока : 603 Мбайт (86%)
Библиотека кодирования : XviD 1.2.0.dev47 (UTC 2006-11-01)
Аудио
Идентификатор : 1
Формат : MPEG Audio
Версия формата : Version 1
Профиль формата : Layer 3
Идентификатор кодека : 55
Идентификатор кодека/Подсказка : MP3
Продолжительность : 1 ч. 40 м.
Вид битрейта : Постоянный
Битрейт : 128 Кбит/сек
Каналы : 2 канала
Частота : 48,0 КГц
Метод сжатия : С потерями
Размер потока : 91,8 Мбайт (13%)
Выравнивание : Соединение по промежуткам
Продолжительность промежутка : 40 мс. (1,00 видеокадр)
Время предзагрузки промежутка : 504 мс.
Библиотека кодирования : LAME3.97
Настройки программы : -m s -V 4 -q 2 -lowpass 17 -b 128

Скриншоты


[cybertorrent.ru].t81.torrent 
Торрент: Зарегистрирован [ 2018-02-15 13:57 ] · 64A652EBFA862871103516B42A399290B5C40262

Скачать .torrent

Скачать

14 KB

Статус: проверено
Скачан: 0 раз
Размер: 702 MB
Профиль [ЛС]
Показать сообщения:    

Текущее время: 27-Май 01:38

Часовой пояс: UTC ± 0



Вы не можете начинать темы
Вы не можете отвечать на сообщения
Вы не можете редактировать свои сообщения
Вы не можете удалять свои сообщения
Вы не можете голосовать в опросах
Вы не можете прикреплять файлы к сообщениям
Вы можете скачивать файлы