Статистика раздачи
Нет
 
     
 
 

MAGNAT ®

Пол:
Мужской
Стаж:
2 года 8 месяцев
Сообщений:
13012

Откуда: Москва

Питон и сторож Год выпуска: 2015
Страна: Россия
Киностудия:
Жанр: мультфильм, короткометражка
Продолжительность: 00:14:17
Перевод: не требуется
субтитры: отсутствуют-Режиссёр: Антон Дьяков-Описание: Это история о похождениях двух, на первый взгляд, несовместимых, героев: сторожа зоопарка и питона. Странная парочка по пути к своей мечте попадает в непростые ситуации, но, в конце концов, герои преодолевают все, а наградой им становится дружба.-Качество: WEBRip 1080p
Формат: MP4
Видео кодек: AVC
Аудио кодек: AAC
Видео: 1920x1080, 25 fps, ~5120 kbps, 0.099 bit/pixel
Аудио: 48kHz, AAC, 2ch, 256 kbps

MediaInfo

Общее
Полное имя : D:\Сов.мульт 1080р\Питон и сторож.2015.WEBRip 1080p.mp4
Формат : MPEG-4
Профиль формата : Base Media
Идентификатор кодека : isom (isom/iso2/avc1/mp41)
Размер файла : 548 Мбайт
Продолжительность : 14 м. 17 с.
Общий поток : 5365 Кбит/сек
Программа кодирования : Lavf55.33.100
Видео
Идентификатор : 1
Формат : AVC
Формат/Информация : Advanced Video Codec
Профиль формата : High@L4
Настройки формата : CABAC / 4 Ref Frames
Параметр CABAC формата : Да
Параметр RefFrames формата : 4 кадра
Идентификатор кодека : avc1
Идентификатор кодека/Информация : Advanced Video Coding
Продолжительность : 14 м. 17 с.
Битрейт : 5120 Кбит/сек
Ширина : 1920 пикселей
Высота : 1080 пикселей
Соотношение сторон : 16:9
Режим частоты кадров : Постоянный
Частота кадров : 25,000 кадров/сек
Цветовое пространство : YUV
Субдискретизация насыщенности : 4:2:0
Битовая глубина : 8 бит
Тип развёртки : Прогрессивная
Бит/(Пиксели*Кадры) : 0.099
Размер потока : 522 Мбайт (95%)
Библиотека кодирования : x264 core 142
Настройки программы : cabac=1 / ref=3 / deblock=1:0:0 / analyse=0x3:0x113 / me=hex / subme=7 / psy=1 / psy_rd=1.00:0.00 / mixed_ref=1 / me_range=16 / chroma_me=1 / trellis=1 / 8x8dct=1 / cqm=0 / deadzone=21,11 / fast_pskip=1 / chroma_qp_offset=-2 / threads=36 / lookahead_threads=6 / sliced_threads=0 / nr=0 / decimate=1 / interlaced=0 / bluray_compat=0 / constrained_intra=0 / bframes=6 / b_pyramid=2 / b_adapt=1 / b_bias=0 / direct=1 / weightb=1 / open_gop=0 / weightp=2 / keyint=50 / keyint_min=26 / scenecut=0 / intra_refresh=0 / rc_lookahead=40 / rc=2pass / mbtree=1 / bitrate=5120 / ratetol=1.0 / qcomp=0.60 / qpmin=0 / qpmax=69 / qpstep=4 / cplxblur=20.0 / qblur=0.5 / vbv_maxrate=7680 / vbv_bufsize=20480 / nal_hrd=none / filler=0 / ip_ratio=1.40 / aq=1:1.00
Язык : English
Дата пометки : UTC 2017-11-28 18:03:47
Аудио
Идентификатор : 2
Формат : AAC
Формат/Информация : Advanced Audio Codec
Профиль формата : LC
Идентификатор кодека : mp4a-40-2
Продолжительность : 14 м. 17 с.
Duration_LastFrame : 43 мс.
Вид битрейта : Постоянный
Битрейт : 256 Кбит/сек
Каналы : 2 канала
Расположение каналов : Front: L R
Частота : 48,0 КГц
Частота кадров : 46,875 кадров/сек (1024 SPF)
Метод сжатия : С потерями
Размер потока : 26,2 Мбайт (5%)
Язык : Russian
Default : Да
AlternateGroup/String : 1
Дата пометки : UTC 2017-11-28 18:03:47
Профиль [ЛС]
Показать сообщения:    

Текущее время: 01-Дек 02:36

Часовой пояс: UTC ± 0



Вы не можете начинать темы
Вы не можете отвечать на сообщения
Вы не можете редактировать свои сообщения
Вы не можете удалять свои сообщения
Вы не можете голосовать в опросах
Вы не можете прикреплять файлы к сообщениям
Вы не можете скачивать файлы