Статистика раздачи
Размер:  692 MB   |    Зарегистрирован:  1 месяц 5 дней   |    Скачан:  0 раз

Полного источника не было: Никогда

Личеров:  1  [  0 KB/s  ]  
 
     
 
 

Floyd ®

Пол:
Мужской
Стаж:
7 месяцев 25 дней
Сообщений:
1521

Летающий пролетарий Год выпуска: 1962
Страна: СССР
Киностудия:
Жанр: мультфильм, короткометражка
Продолжительность: 00:17:10
Перевод: не требуется
субтитры: отсутствуют-Режиссёр: Иосиф Боярский, Иван Иванов-Вано
Роли озвучивали: Борис Попов-Описание: Взяв из почтового ящика коммунальной квартиры газеты, Владимир Маяковский начинает их просматривать. Газетные полосы пестрят сообщениями о военных приготовлениях человечества.
Снят по мотивам произведений Владимира Маяковского.-Качество: WEBRip 1080p
Формат: MP4
Видео кодек: AVC
Аудио кодек: AAC
Видео: 1920x804, 25 fps, ~5120 kbps, 0.133 bit/pixel
Аудио: 48kHz, AAC, 2ch, 512 kbps

MediaInfo

Общее
Полное имя : D:\Сов.мульт 1080р\Летающий пролетарий.1962.WEBRip 1080p.mp4
Формат : MPEG-4
Профиль формата : Base Media
Идентификатор кодека : isom (isom/iso2/avc1/mp41)
Размер файла : 692 Мбайт
Продолжительность : 17 м. 10 с.
Общий поток : 5635 Кбит/сек
Программа кодирования : Lavf55.33.100
Видео
Идентификатор : 1
Формат : AVC
Формат/Информация : Advanced Video Codec
Профиль формата : High@L4
Настройки формата : CABAC / 4 Ref Frames
Параметр CABAC формата : Да
Параметр RefFrames формата : 4 кадра
Идентификатор кодека : avc1
Идентификатор кодека/Информация : Advanced Video Coding
Продолжительность : 17 м. 10 с.
Битрейт : 5120 Кбит/сек
Ширина : 1920 пикселей
Высота : 804 пикселя
Соотношение сторон : 2,40:1
Режим частоты кадров : Постоянный
Частота кадров : 25,000 кадров/сек
Цветовое пространство : YUV
Субдискретизация насыщенности : 4:2:0
Битовая глубина : 8 бит
Тип развёртки : Прогрессивная
Бит/(Пиксели*Кадры) : 0.133
Размер потока : 629 Мбайт (91%)
Библиотека кодирования : x264 core 142
Настройки программы : cabac=1 / ref=3 / deblock=1:0:0 / analyse=0x3:0x113 / me=hex / subme=7 / psy=1 / psy_rd=1.00:0.00 / mixed_ref=1 / me_range=16 / chroma_me=1 / trellis=1 / 8x8dct=1 / cqm=0 / deadzone=21,11 / fast_pskip=1 / chroma_qp_offset=-2 / threads=48 / lookahead_threads=6 / sliced_threads=0 / nr=0 / decimate=1 / interlaced=0 / bluray_compat=0 / constrained_intra=0 / bframes=6 / b_pyramid=2 / b_adapt=1 / b_bias=0 / direct=1 / weightb=1 / open_gop=0 / weightp=2 / keyint=50 / keyint_min=26 / scenecut=0 / intra_refresh=0 / rc_lookahead=40 / rc=2pass / mbtree=1 / bitrate=5120 / ratetol=1.0 / qcomp=0.60 / qpmin=0 / qpmax=69 / qpstep=4 / cplxblur=20.0 / qblur=0.5 / vbv_maxrate=7680 / vbv_bufsize=20480 / nal_hrd=none / filler=0 / ip_ratio=1.40 / aq=1:1.00
Дата пометки : UTC 2018-07-19 17:06:41
Аудио
Идентификатор : 2
Формат : AAC
Формат/Информация : Advanced Audio Codec
Профиль формата : LC
Идентификатор кодека : mp4a-40-2
Продолжительность : 17 м. 10 с.
Duration_LastFrame : 43 мс.
Вид битрейта : Постоянный
Битрейт : 512 Кбит/сек
Каналы : 2 канала
Расположение каналов : Front: L R
Частота : 48,0 КГц
Частота кадров : 46,875 кадров/сек (1024 SPF)
Метод сжатия : С потерями
Размер потока : 62,9 Мбайт (9%)
Язык : Russian
Default : Да
AlternateGroup/String : 1
Дата пометки : UTC 2018-07-19 17:06:41
[cybertorrent.ru].t8132.torrent 
Торрент: Зарегистрирован [ 2019-10-17 16:38 ] · 93A414EF53BE5CF8C9D3704A05C8246F56686715

Скачать .torrent

Скачать

14 KB

Статус: проверено
Скачан: 0 раз
Размер: 692 MB
terms.php
Профиль [ЛС]
Показать сообщения:    

Текущее время: 23-Ноя 01:36

Часовой пояс: UTC ± 0



Вы не можете начинать темы
Вы не можете отвечать на сообщения
Вы не можете редактировать свои сообщения
Вы не можете удалять свои сообщения
Вы не можете голосовать в опросах
Вы не можете прикреплять файлы к сообщениям
Вы можете скачивать файлы