Статистика раздачи
Размер:  1,37 GB   |    Зарегистрирован:  3 месяца 6 дней   |    Скачан:  0 раз

Полного источника не было: Никогда

 
   
 
 

lopster ®

Пол:
Не указан
Стаж:
3 месяца 6 дней
Сообщений:
612

Интересные мужчины
Год выпуска: 2001
Жанр: Драма
Продолжительность: 01:38:18
Режиссер: Юрий Кара
В ролях: Игорь Лагутин, Сергей Никоненко, Алексей Елистратов, Андрей Анкудинов, Андрей Межулис, Наталья Фенкина, Николай Кочегаров
Описание: Свободная экранизация одноименного произведения писателя Николая Лескова (Левша), жившего в в середине позапрошлого, 19-го века. Теперь мужчины стали свободнее и одеваются как хотят, разные большие идеи имеют, а при всем том они стереотипны, скучны и неинтересны…"XIX век. Россия. В красивом провинциальном городке, где расквартирован кавалерийский полк, проходят дни, наполняемые игрой в карты, кутежами и музыкой. Однажды, в долгий зимний вечер в обществе офицеров появляется богатый иностранец, которого приглашают принять участие в игре. Роковая партия в карты, и один теряет деньги, другой - жизнь, третий - веру в офицерскую честь, но время расставит все на свои места…
Доп. информация: Релиз: Кинозал.ТВ
Все раздачи фильма: Интересные мужчины
Семпл
Качество: DVDRip
Формат: AVI
Видео кодек: DivX
Аудио кодек: AC3
Видео: 720x544, 1540 kb/s, 0.157 bits/pixel, 25.000fps
Аудио: 448 kb/s (6 ch) CBR, 48000 Hz

MI

Код:Общее
Полное имя : C:\otkat\Видео\Интересные мужчины\Interesnye.mujchiny.2003.DivX.DVDRi.avi
Формат : AVI
Формат/Информация : Audio Video Interleave
Размер файла : 1,37 Гбайт
Продолжительность : 1 ч. 38 м.
Общий поток : 1992 Кбит/сек
Программа кодирования : VirtualDubMod 1.5.4.1 (build 2178/release)
Библиотека кодирования : VirtualDubMod build 2178/release
Видео
Идентификатор : 0
Формат : MPEG-4 Visual
Параметр BVOP формата : 1
Параметр QPel формата : Нет
Параметр GMC формата : Без точки перехода
Параметр матрицы формата : Default (H.263)
Режим смешивания : Сжатый битовый поток
Идентификатор кодека : DX50
Идентификатор кодека/Подсказка : DivX 5
Продолжительность : 1 ч. 38 м.
Битрейт : 1541 Кбит/сек
Ширина : 720 пикселей
Высота : 544 пикселя
Соотношение сторон : 4:3
Частота кадров : 25,000 кадров/сек
Цветовое пространство : YUV
Субдискретизация насыщенности : 4:2:0
Битовая глубина : 8 бит
Тип развёртки : Прогрессивная
Метод сжатия : С потерями
Бит/(Пиксели*Кадры) : 0.157
Размер потока : 1,06 Гбайт (77%)
Библиотека кодирования : DivX 6.8.2 (UTC 2008-05-17)
Аудио
Идентификатор : 1
Формат : AC-3
Формат/Информация : Audio Coding 3
Расширение режима : CM (complete main)
Параметр Endianness формата : Big
Идентификатор кодека : 2000
Продолжительность : 1 ч. 37 м.
Вид битрейта : Постоянный
Битрейт : 448 Кбит/сек
Каналы : 6 каналов
Расположение каналов : Front: L C R, Side: L R, LFE
Частота : 48,0 КГц
Частота кадров : 31,250 кадров/сек (1536 spf)
Метод сжатия : С потерями
Размер потока : 313 Мбайт (22%)
Выравнивание : Разделение по промежуткам
Продолжительность промежутка : 97 мс. (2,42 видеокадра)
Время предзагрузки промежутка : 96 мс.
Язык : Russian

Скриншоты

[cybertorrent.ru].t82.torrent 
Торрент: Зарегистрирован [ 2018-02-15 13:57 ] · B9F7706E41470783787B39326C434982D6634FC6

Скачать .torrent

Скачать

14 KB

Статус: проверено
Скачан: 0 раз
Размер: 1,37 GB
Профиль [ЛС]
Показать сообщения:    

Текущее время: 22-Май 00:17

Часовой пояс: UTC ± 0



Вы не можете начинать темы
Вы не можете отвечать на сообщения
Вы не можете редактировать свои сообщения
Вы не можете удалять свои сообщения
Вы не можете голосовать в опросах
Вы не можете прикреплять файлы к сообщениям
Вы можете скачивать файлы