Статистика раздачи
Размер:  3,58 GB   |    Зарегистрирован:  3 месяца 7 дней   |    Скачан:  0 раз

Полного источника не было: Никогда

 
   
 
 

dazbaz ®

Пол:
Не указан
Стаж:
3 месяца 7 дней
Сообщений:
216

Русское чудо
Страна: Россия
Жанр: комедия
Год выпуска: 1994
Продолжительность: 01:15:33
Перевод: Не требуется
Субтитры: нет
Оригинальная аудиодорожка: русская
Режиссер: Михаил Кокшенов
В ролях: Семён Фарада, Михаил Кокшенов, Наталья Крачковская, Леонид Куравлёв, Рудольф Рудин, Татьяна Кравченко, Вадим Захарченко, Евгений Марченко, Валерий Носик, Владимир Кондратьев
Описание: Предприимчивый Иван решает организовать гастроли в Америке знаменитого русского экстрасенса Юрия Кошмаровского и подзаработать немного «зеленых». Однако, перед самым вылетом обнаруживается, что маэстро попал в больницу.
Ну не отменять же выступления из-за такого пустяка! К счастью, в аэропорт Ивана провожала тетя Катя с мужем Петей, который, как оказалось, почти двойник Кошмаровского…
Меню: есть, статичное, озвученное
Тип релиза: DVD5
Контейнер: DVD-Video
Видео: PAL 4:3 (720x576(0.586)) MPEG Video, 25,000 кадр/сек, 6075 Кбит/сек
Аудио: Russian (Dolby AC-3, 6 ch) 448 Кбит/сек, 48.0 КГц

Доп. информация по релизу

Полная реставрация изображения и звука!

MediaInfo

Общее
Полное имя : Ruskoe_chudo_1994_DVD-5\VIDEO_TS\VTS_01_1.VOB
Формат : MPEG-PS
Размер файла : 1000 Мбайт
Продолжительность : 21 м. 0 с.
Режим общего битрейта : Переменный
Общий поток : 6655 Кбит/сек
Видео
Идентификатор : 224 (0xE0)
Формат : MPEG Video
Версия формата : Version 2
Профиль формата : Main@Main
Настройки формата : CustomMatrix / BVOP
Параметр BVOP формата : Да
Параметр матрицы формата : Выборочная
Параметр GOP формата : Variable
Структура изображения : Frame
Продолжительность : 21 м. 0 с.
Вид битрейта : Переменный
Битрейт : 6075 Кбит/сек
Максимальный битрейт : 8000 Кбит/сек
Ширина : 720 пикселей
Высота : 576 пикселей
Соотношение сторон : 4:3
Частота кадров : 25,000 кадров/сек
Стандарт вещания : PAL
Цветовое пространство : YUV
Субдискретизация насыщенности : 4:2:0
Битовая глубина : 8 бит
Тип развёртки : Чересстрочная
Порядок развёртки : Верхнее поле первое
Метод сжатия : С потерями
Бит/(Пиксели*Кадры) : 0.586
Временной код первого кадра : 03:26:42:05
Оригинал временного кода : Group of pictures header
GOP, открыто/закрыто : Закрыто
Размер потока : 913 Мбайт (91%)
Аудио
Идентификатор : 189 (0xBD)-128 (0x80)
Формат : AC-3
Формат/Информация : Audio Coding 3
Режим смешивания : DVD-Video
Продолжительность : 21 м. 0 с.
Вид битрейта : Постоянный
Битрейт : 448 Кбит/сек
Каналы : 6 каналов
Расположение каналов : Front: L C R, Side: L R, LFE
Частота : 48,0 КГц
Частота кадров : 31,250 кадров/сек (1536 SPF)
Битовая глубина : 16 бит
Метод сжатия : С потерями
Размер потока : 67,3 Мбайт (7%)
ServiceKind/String : Complete Main

Скриншоты меню

Скриншоты

[cybertorrent.ru].t824.torrent 
Торрент: Зарегистрирован [ 2018-02-15 22:25 ] · 33DAA40AA921F7912B88400A5272A844DBB85A51

Скачать .torrent

Скачать

19 KB

Статус: проверено
Скачан: 0 раз
Размер: 3,58 GB
Профиль [ЛС]
Показать сообщения:    

Текущее время: 22-Май 23:02

Часовой пояс: UTC ± 0



Вы не можете начинать темы
Вы не можете отвечать на сообщения
Вы не можете редактировать свои сообщения
Вы не можете удалять свои сообщения
Вы не можете голосовать в опросах
Вы не можете прикреплять файлы к сообщениям
Вы можете скачивать файлы