Статистика раздачи
Размер:  4,01 GB   |    Зарегистрирован:  3 месяца 7 дней   |    Скачан:  0 раз

Полного источника не было: Никогда

Личеров:  1  [  0 KB/s  ]  
 
   
 
 

xfactor ®

Пол:
Не указан
Стаж:
3 месяца 7 дней
Сообщений:
238

Американец в Париже / An American in Paris
Страна: США
Жанр: мюзикл, драма, мелодрама
Год выпуска: 1951
Продолжительность: 01:48:52
Перевод: Профессиональный (многоголосый, закадровый)
Субтитры: нет
Оригинальная аудиодорожка: английская
Режиссер: Винсент Миннелли / Vincente Minnelli
В ролях: Джин Келли, Лесли Карон, Оскар Левант, Жорж Гуэтари, Нина Фош, Роберт Амес, Джоан Андерсон, Мари Антониетта Эндрюс, Ларри Арнольд, Марта Баматтр
Описание: Бывший солдат Джерри пытается стать художником в послевоенном Париже. И имеет некоторый успех, найдя богатую покровительницу, которая покупает его картины и рекомендует их своим друзьям.
Однажды он заходит в ночной клуб и знакомится с Лизой и молодые люди моментально влюбляются. Но позже она неожиданно сообщает, что помолвлена с его другом. И Джерри, и Лиза поступают благородно, решив более не встречаться.
Меню: есть, анимированное
Тип релиза: DVD5
Контейнер: DVD-Video
Видео: PAL 4:3 (720x576(0.463)) MPEG Video, 25,000 кадр/сек, 4801 Кбит/сек
Аудио: Russian (Dolby AC-3, 2 ch) 192 Кбит/сек, 48.0 КГц
Аудио 2: English (Dolby AC-3, 2 ch) 192 Кбит/сек, 48.0 КГц

MediaInfo

Общее
Полное имя : Американец в Париже\VIDEO_TS\VTS_01_1.VOB
Формат : MPEG-PS
Размер файла : 1000 Мбайт
Продолжительность : 26 м. 25 с.
Режим общего битрейта : Переменный
Общий поток : 5290 Кбит/сек
Библиотека кодирования : (c) 1998-2007 Womble Multimedia, Inc. / MPEG Video Wizard (04/2007) / Mar 29 2007
Видео
Идентификатор : 224 (0xE0)
Формат : MPEG Video
Версия формата : Version 2
Профиль формата : Main@Main
Настройки формата : BVOP
Параметр BVOP формата : Да
Параметр матрицы формата : По умолчанию
Параметр GOP формата : M=3, N=13
Продолжительность : 26 м. 25 с.
Вид битрейта : Переменный
Битрейт : 4801 Кбит/сек
Максимальный битрейт : 8300 Кбит/сек
Ширина : 720 пикселей
Высота : 576 пикселей
Соотношение сторон : 4:3
Частота кадров : 25,000 кадров/сек
Стандарт вещания : PAL
Цветовое пространство : YUV
Субдискретизация насыщенности : 4:2:0
Битовая глубина : 8 бит
Тип развёртки : Прогрессивная
Метод сжатия : С потерями
Бит/(Пиксели*Кадры) : 0.463
Временной код первого кадра : 00:00:00:00
Оригинал временного кода : Group of pictures header
Размер потока : 908 Мбайт (91%)
Библиотека кодирования : (c) 1998-2007 Womble Multimedia, Inc. / MPEG Video Wizard (04/2007) / Mar 29 2007
Аудио #1
Идентификатор : 189 (0xBD)-128 (0x80)
Формат : AC-3
Формат/Информация : Audio Coding 3
Режим смешивания : DVD-Video
Продолжительность : 26 м. 25 с.
Вид битрейта : Постоянный
Битрейт : 192 Кбит/сек
Каналы : 2 канала
Расположение каналов : Front: L R
Частота : 48,0 КГц
Частота кадров : 31,250 кадров/сек (1536 SPF)
Битовая глубина : 16 бит
Метод сжатия : С потерями
Размер потока : 36,3 Мбайт (4%)
ServiceKind/String : Complete Main
Аудио #2
Идентификатор : 189 (0xBD)-129 (0x81)
Формат : AC-3
Формат/Информация : Audio Coding 3
Режим смешивания : DVD-Video
Продолжительность : 26 м. 25 с.
Вид битрейта : Постоянный
Битрейт : 192 Кбит/сек
Каналы : 2 канала
Расположение каналов : Front: L R
Частота : 48,0 КГц
Частота кадров : 31,250 кадров/сек (1536 SPF)
Битовая глубина : 16 бит
Метод сжатия : С потерями
Размер потока : 36,3 Мбайт (4%)
ServiceKind/String : Complete Main

Скриншоты меню

Скриншоты

[cybertorrent.ru].t828.torrent 
Торрент: Зарегистрирован [ 2018-02-15 22:25 ] · 90575EA822232B04B0B1E446CC91A664E0E3B3D1

Скачать .torrent

Скачать

11 KB

Статус: проверено
Скачан: 0 раз
Размер: 4,01 GB
Профиль [ЛС]
Показать сообщения:    

Текущее время: 23-Май 07:18

Часовой пояс: UTC ± 0



Вы не можете начинать темы
Вы не можете отвечать на сообщения
Вы не можете редактировать свои сообщения
Вы не можете удалять свои сообщения
Вы не можете голосовать в опросах
Вы не можете прикреплять файлы к сообщениям
Вы можете скачивать файлы