Статистика раздачи
Размер:  2,19 GB   |    Зарегистрирован:  7 месяцев 1 день   |    Скачан:  0 раз

Полного источника не было: Никогда

   
 

Гость ®

Пол:
Не указан

Экипаж / Широкоэкранная версия
-WEBRip-720p | WEBRip | HDTVRip-Жанр: фильм-катастрофа, мелодрама
Год выпуска: 1979
Продолжительность: 02:14:24
Режиссёр: Александр Митта
В ролях: Георгий Жжёнов, Анатолий Васильев, Леонид Филатов, Александра Яковлева, Ирина Акулова, Екатерина Васильева, Юрий Горобец, Александр Павлов, Галина Гладкова, Рома Монин (озвучание - Клара Румянова), Комаки Курихара, Елена Коренева, Владимир Иванов, Алексей Якубов, Антон Табаков, Ирина Савина, Лариса Барабанова, Владимир Маренков, Александр Пашутин, Александр Потапов, Клара Румянова, Иван Рыжов, Ирина Санпитер, Мария Скворцова, Леонид Чубаров, Герман Юшко
Описание: СССР, конец 1970-х годов. Герои фильма — экипаж пассажирского самолёта "Ту-154", совершающий международные рейсы. Игорь Скворцов — бортинженер, меняет любовниц одну за другой. Последней в его донжуанском списке становится стюардесса Тамара - внучка старого друга командира экипажа, Андрея Васильевича Тимченко. Бывший член экипажа Валентин Ненароков, перешедший из большой авиации в малую, страдает от непрерывных скандалов, которые ему закатывает жена Алевтина. У самого Тимченко в семье тоже проблемы: дочь забеременела, но выходить замуж за отца ребёнка отказывается. После очередной ежегодной медкомиссии Тимченко узнаёт, что, вполне вероятно, его вскоре отстранят от полётов по состоянию здоровья. А тут еще экипажу предстоит сложный рейс за границу, в город нефтяников Бидри, где случилось землетрясение большой разрушительной силы...
Доп. информация: Различия DVD / WEBRip и HDTV - разное наполнение кадра - 16:9 (1.78:1)
Присутствуют рекламные вставки
Сэмпл: http://multi-up.com/1223913
Качество видео: HDTVRip Исходник
Формат видео: AVI
Видео: XviD / 2132 kbps / 704x400 / 25.000 fps
Аудио: AC3 / 2 ch / 192 kbps / 48 kHz

MediaInfo

General
Complete name : I:\torrents\Экипаж (1979) HDTVRip (Широкоэкранная версия).avi
Format : AVI
Format/Info : Audio Video Interleave
Format profile : OpenDML
File size : 2.19 GiB
Duration : 2 h 14 min
Overall bit rate : 2 337 kb/s
Writing application : VirtualDubMod 1.5.10.3 | www.virtualdub-fr.org || (build 2550/release)
Writing library : VirtualDubMod build 2550/release
Video
ID : 0
Format : MPEG-4 Visual
Format profile : Advanced Simple@L5
Format settings : BVOP2
Format settings, BVOP : 2
Format settings, QPel : No
Format settings, GMC : No warppoints
Format settings, Matrix : Default (H.263)
Codec ID : XVID
Codec ID/Hint : XviD
Duration : 2 h 14 min
Bit rate : 2 132 kb/s
Width : 704 pixels
Height : 400 pixels
Display aspect ratio : 16:9
Frame rate : 25.000 FPS
Color space : YUV
Chroma subsampling : 4:2:0
Bit depth : 8 bits
Scan type : Progressive
Compression mode : Lossy
Bits/(Pixel*Frame) : 0.303
Stream size : 2.00 GiB (91%)
Writing library : XviD 1.2.1 (UTC 2008-12-04)
Audio
ID : 1
Format : AC-3
Format/Info : Audio Coding 3
Commercial name : Dolby Digital
Codec ID : 2000
Duration : 2 h 14 min
Bit rate mode : Constant
Bit rate : 192 kb/s
Channel(s) : 2 channels
Channel layout : L R
Sampling rate : 48.0 kHz
Frame rate : 31.250 FPS (1536 SPF)
Bit depth : 16 bits
Compression mode : Lossy
Stream size : 185 MiB (8%)
Alignment : Split accross interleaves
Interleave, duration : 40 ms (1.00 video frame)
Interleave, preload duratio : 500 ms
Service kind : Complete Main

Наглядное сравнение DVD и HDTV

Скриншот c названием фильма

Скриншоты

-

Обновление 16 февраля 2019

Новый рип с лучшим качеством изображения
Старый рип:

Новый рип:
[cybertorrent.ru].t83.torrent 
Торрент: Зарегистрирован [ 2019-03-18 10:04 ] · 2914E733174DBAFE6887947A42F782D9BB7D9979

Скачать .torrent

Скачать

11 KB

Статус: проверено
Скачан: 0 раз
Размер: 2,19 GB
terms.php
Показать сообщения:    

Текущее время: 20-Окт 05:38

Часовой пояс: UTC ± 0



Вы не можете начинать темы
Вы не можете отвечать на сообщения
Вы не можете редактировать свои сообщения
Вы не можете удалять свои сообщения
Вы не можете голосовать в опросах
Вы не можете прикреплять файлы к сообщениям
Вы можете скачивать файлы