Статистика раздачи
Размер:  4,25 GB   |    Зарегистрирован:  5 месяцев 7 дней   |    Скачан:  0 раз

Полного источника не было: Никогда

Личеров:  1  [  0 KB/s  ]  
 
   
 
 

Volga ®

Пол:
Не указан
Стаж:
5 месяцев 7 дней
Сообщений:
92

Цирк солнца / Cirque du Soleil - Alegria An Enchanting Fable
Год выпуска: 1998
Страна: USA
Продолжительность: 01:33:19
Описание: Фрак – уличный клоун-мим, чья жажда жизни и любовь к лицедейству омрачены глубокой печалью. Но все изменилась с того момента, как он повстречал Джульетту, певицу и актрису цирковой труппы. В компании со своим одиннадцатилетним другом Момо Фрак начинает путешествие, полное приключений и любовных переживаний.
Постановщик Franco Dragone сделал свой дебют в кино совершенно особенным, трансформировав оригинальное видение лайв-шоу. Фантастические образы перенесены в реальный мир, в замечательно изложенной истории любви, воплощенной интернациональным составом исполнителей.
Фильм, действительно, очень трогательный и добрый. Но приглашенные актеры, по-моему, совершенно в него не вписались. Цирковые артисты, исполнившие главные роли: René Bazinet и Brian Dewhurst (к слову, старейший из артистов Дю Слей), переигрывают их на два счета и по выразительности, и по энергетике. А уж о наших русских клоунах и говорить нечего! Они выдают неподдельные эмоции ураганной силы: искрящуюся радость и глубочайшую печаль. С ними вместе и хохочешь, и плачешь, непроизвольно идя у них на поводу.
Фильм был снят в Амстердаме и Берлине в 1997 г.
Качество: DVD5
Формат: DVD Video
Видео кодек: MPEG2
Аудио кодек: AC3
Видео: NTSC 4:3 (720x480) VBR
Аудио: English (Dolby AC3, 6 ch)
диск купил в штатах естественно перевода нет

Скриншоты



Тех. данные

General
Format : MPEG-PS
File size : 3.26 GiB
Duration : 1 h 33 min
Overall bit rate mode : Variable
Overall bit rate : 5 003 kb/s
Video
ID : 224 (0xE0)
Format : MPEG Video
Format version : Version 2
Format profile : Main@Main
Format settings, BVOP : Yes
Format settings, Matrix : Custom
Format settings, GOP : M=3, N=15
Format settings, picture struc : Frame
Duration : 1 h 33 min
Bit rate mode : Variable
Bit rate : 4 135 kb/s
Maximum bit rate : 8 000 kb/s
Width : 720 pixels
Height : 480 pixels
Display aspect ratio : 4:3
Frame rate : 29.970 (30000/1001) FPS
Standard : NTSC
Color space : YUV
Chroma subsampling : 4:2:0
Bit depth : 8 bits
Scan type : Interlaced
Scan order : Top Field First
Compression mode : Lossy
Bits/(Pixel*Frame) : 0.399
Time code of first frame : 00:59:58:00
Time code source : Group of pictures header
GOP, Open/Closed : Closed
Stream size : 2.70 GiB (83%)
Audio #1
ID : 189 (0xBD)-128 (0x80)
Format : AC-3
Format/Info : Audio Coding 3
Mode extension : CM (complete main)
Format settings, Endianness : Big
Muxing mode : DVD-Video
Duration : 1 h 33 min
Bit rate mode : Constant
Bit rate : 384 kb/s
Channel(s) : 6 channels
Channel positions : Front: L C R, Side: L R, LFE
Sampling rate : 48.0 kHz
Frame rate : 31.250 FPS (1536 spf)
Bit depth : 16 bits
Compression mode : Lossy
Stream size : 257 MiB (8%)
Audio #2
ID : 189 (0xBD)-129 (0x81)
Format : AC-3
Format/Info : Audio Coding 3
Format profile : Dolby Digital
Mode extension : CM (complete main)
Format settings, Endianness : Big
Muxing mode : DVD-Video
Duration : 1 h 33 min
Bit rate mode : Constant
Bit rate : 192 kb/s
Channel(s) : 2 channels
Channel positions : Front: L R
Sampling rate : 48.0 kHz
Frame rate : 31.250 FPS (1536 spf)
Bit depth : 16 bits
Compression mode : Lossy
Stream size : 128 MiB (4%)
Audio #3
ID : 189 (0xBD)-130 (0x82)
Format : AC-3
Format/Info : Audio Coding 3
Mode extension : CM (complete main)
Format settings, Endianness : Big
Muxing mode : DVD-Video
Duration : 1 h 33 min
Bit rate mode : Constant
Bit rate : 192 kb/s
Channel(s) : 2 channels
Channel positions : Front: L R
Sampling rate : 48.0 kHz
Frame rate : 31.250 FPS (1536 spf)
Bit depth : 16 bits
Compression mode : Lossy
Delay relative to video : 25 ms
Stream size : 128 MiB (4%)
Menu
[cybertorrent.ru].t832.torrent 
Торрент: Зарегистрирован [ 2018-02-15 22:25 ] · 70698D0E5F36A888F4E3F2619A0CD20A0F6129BA

Скачать .torrent

Скачать

24 KB

Статус: проверено
Скачан: 0 раз
Размер: 4,25 GB
Профиль [ЛС]
Показать сообщения:    

Текущее время: 23-Июл 02:09

Часовой пояс: UTC ± 0



Вы не можете начинать темы
Вы не можете отвечать на сообщения
Вы не можете редактировать свои сообщения
Вы не можете удалять свои сообщения
Вы не можете голосовать в опросах
Вы не можете прикреплять файлы к сообщениям
Вы можете скачивать файлы