Статистика раздачи
Размер:  4,96 GB   |    Зарегистрирован:  3 месяца 5 дней   |    Скачан:  0 раз

Полного источника не было: Никогда

 
   
 
 

Катюшка ®

Пол:
Не указан
Стаж:
3 месяца 6 дней
Сообщений:
288

Предложение / The Proposition
Год выпуска: 2005
Страна: Австралия, Великобритания
Жанр: вестерн, драма
Продолжительность: 01:44:00
Перевод 1: Профессиональный (многоголосый, закадровый)
Перевод 2: Профессиональный (многоголосый, закадровый)
Субтитры: английские
Оригинальная аудиодорожка: английский
Режиссер: Джон Хиллкоут /John Hillcoat/
В ролях: Гай Пирс / Guy Pearce, Эмили Уотсон / Emily Watson, Ричард Уилсон / Richard Wilson, Ноа Тэйлор / Noah Taylor
Описание: Лучшее воплощение мрачного гения Ника Кэйва - драма о предательстве и возмездии, разыгравшаяся в конце 19 века в австралийской пустыне. Любовь, смерть и насилие - любимые темы готически-мрачного Ника Кейва - великолепно воплотились в сюжете фильма. Перед Чарли Бернсом (Гай Пирс) стоит нелегкий выбор – чтобы спасти от виселицы своего младшего брата Мики, он должен убить старшего Артура. А приехавший в Австралию из Англии капитан Стенли (Рей Винстон) отчаянно пытается оградить жену от зверств новой среды…
Балансируя на грани жизни и смерти, герои встают перед моральными дилеммами, решение которых приводит к сокрушительному результату. Страх, ненависть, любовь и долг смешиваются с запахами пота, крови и пыли необжитой колониальной Австралии 19 века.
Доп. информация: Музыку к фильму написал Nick Cave
Тип релиза: BDRip 720p
Контейнер: MKV
Видео: 1280x532, x264, 24 fps, ~ 4488 kbps
Аудио1: Английский DTS 5.1 - 1536 kb/s, 48.0 kHz
Аудио2: Русский AC3 5.1 - 448 kb/s, 48.0 kHz (Многоголосый 1);
Аудио3: Русский AC3 5.1 - 384 kb/s, 48.0 kHz (Многоголосый 2);

Скриншоты

MediaInfo

General
Unique ID : 209862214707732375526023839081387374704 (0x9DE1FE0AA80D1485902A0CBA49B5B870)
Complete name : Predlogenie.BDRip.720p.x264.MIF.mkv
Format : Matroska
Format version : Version 1
File size : 4.96 GiB
Duration : 1 h 44 min
Overall bit rate : 6 825 kb/s
Movie name : The Proposition (2005)
Encoded date : UTC 2008-06-28 14:11:45
Writing application : mkvmerge v2.2.0 ('Turn It On Again') built on Mar 4 2008 12:58:26
Writing library : libebml v0.7.7 + libmatroska v0.8.1
Attachments : CronosPro-Bold.ttf / CronosPro-Semibold.ttf / CronosPro-SemiboldIt.ttf
FileExtension_Invalid : mkv mk3d mka mks
Video
ID : 1
Format : AVC
Format/Info : Advanced Video Codec
Format profile : High@L5.1
Format settings : CABAC / 5 Ref Frames
Format settings, CABAC : Yes
Format settings, RefFrames : 5 frames
Codec ID : V_MPEG4/ISO/AVC
Duration : 1 h 44 min
Bit rate : 4 488 kb/s
Width : 1 280 pixels
Height : 532 pixels
Display aspect ratio : 2.40:1
Frame rate mode : Constant
Frame rate : 24.000 FPS
Color space : YUV
Chroma subsampling : 4:2:0
Bit depth : 8 bits
Scan type : Progressive
Bits/(Pixel*Frame) : 0.275
Stream size : 3.16 GiB (64%)
Writing library : x264 core 60 r886M 1075536
Encoding settings : cabac=1 / ref=5 / deblock=1:-3:-3 / analyse=0x3:0x133 / me=umh / subme=6 / brdo=1 / mixed_ref=1 / me_range=16 / chroma_me=1 / trellis=0 / 8x8dct=1 / cqm=2 / deadzone=10,10 / chroma_qp_offset=0 / threads=6 / nr=0 / decimate=1 / mbaff=0 / fgo=3 / bframes=5 / b_pyramid=1 / b_adapt=1 / b_bias=0 / direct=1 / wpredb=1 / bime=1 / keyint=250 / keyint_min=25 / scenecut=40(pre) / rc=2pass / bitrate=4488 / ratetol=1.0 / rceq='blurCplx^(1-qComp)' / qcomp=1.00 / qpmin=10 / qpmax=51 / qpstep=4 / cplxblur=20.0 / qblur=0.5 / ip_ratio=1.40 / pb_ratio=1.22 / aq=2:1.00
Language : English
Default : Yes
Forced : No
Audio #1
ID : 2
Format : DTS
Format/Info : Digital Theater Systems
Codec ID : A_DTS
Duration : 1 h 44 min
Bit rate mode : Constant
Bit rate : 1 509 kb/s
Channel(s) : 6 channels
Channel positions : Front: L C R, Side: L R, LFE
Sampling rate : 48.0 kHz
Frame rate : 93.750 FPS (512 SPF)
Bit depth : 24 bits
Compression mode : Lossy
Stream size : 1.10 GiB (22%)
Title : DTS 5.1
Language : English
Default : Yes
Forced : No
Audio #2
ID : 3
Format : AC-3
Format/Info : Audio Coding 3
Codec ID : A_AC3
Duration : 1 h 44 min
Bit rate mode : Constant
Bit rate : 448 kb/s
Channel(s) : 6 channels
Channel positions : Front: L C R, Side: L R, LFE
Sampling rate : 48.0 kHz
Frame rate : 31.250 FPS (1536 SPF)
Bit depth : 16 bits
Compression mode : Lossy
Stream size : 333 MiB (7%)
Title : DD 5.1 (Mnogogolosiy 1) by MIF
Language : Russian
Service kind : Complete Main
Default : No
Forced : No
Audio #3
ID : 4
Format : AC-3
Format/Info : Audio Coding 3
Codec ID : A_AC3
Duration : 1 h 44 min
Bit rate mode : Constant
Bit rate : 384 kb/s
Channel(s) : 6 channels
Channel positions : Front: L C R, Side: L R, LFE
Sampling rate : 48.0 kHz
Frame rate : 31.250 FPS (1536 SPF)
Bit depth : 16 bits
Compression mode : Lossy
Stream size : 286 MiB (6%)
Title : DD 5.1 (Mnogogolosiy 2) by MIF
Language : Russian
Service kind : Complete Main
Default : No
Forced : No
Text #1
ID : 5
Format : ASS
Codec ID : S_TEXT/ASS
Codec ID/Info : Advanced Sub Station Alpha
Compression mode : Lossless
Language : English
Default : Yes
Forced : No
Text #2
ID : 6
Format : ASS
Codec ID : S_TEXT/ASS
Codec ID/Info : Advanced Sub Station Alpha
Compression mode : Lossless
Language : Finnish
Default : No
Forced : No
Text #3
ID : 7
Format : ASS
Codec ID : S_TEXT/ASS
Codec ID/Info : Advanced Sub Station Alpha
Compression mode : Lossless
Language : Swedish
Default : No
Forced : No
Text #4
ID : 8
Format : ASS
Codec ID : S_TEXT/ASS
Codec ID/Info : Advanced Sub Station Alpha
Compression mode : Lossless
Language : Norwegian
Default : No
Forced : No
Text #5
ID : 9
Format : ASS
Codec ID : S_TEXT/ASS
Codec ID/Info : Advanced Sub Station Alpha
Compression mode : Lossless
Language : Danish
Default : No
Forced : No
Text #6
ID : 10
Format : ASS
Codec ID : S_TEXT/ASS
Codec ID/Info : Advanced Sub Station Alpha
Compression mode : Lossless
Language : Romanian
Default : No
Forced : No
[cybertorrent.ru].t834.torrent 
Торрент: Зарегистрирован [ 2018-02-15 22:25 ] · 9FE584FA25540217AF448376295B33D74ED46D99

Скачать .torrent

Скачать

25 KB

Статус: проверено
Скачан: 0 раз
Размер: 4,96 GB
Профиль [ЛС]
Показать сообщения:    

Текущее время: 21-Май 19:02

Часовой пояс: UTC ± 0



Вы не можете начинать темы
Вы не можете отвечать на сообщения
Вы не можете редактировать свои сообщения
Вы не можете удалять свои сообщения
Вы не можете голосовать в опросах
Вы не можете прикреплять файлы к сообщениям
Вы можете скачивать файлы