Статистика раздачи
Размер:  2,5 GB   |    Зарегистрирован:  3 месяца 7 дней   |    Скачан:  0 раз

Полного источника не было: Никогда

 
   
 
 

irkutsk ®

Пол:
Не указан
Стаж:
3 месяца 8 дней
Сообщений:
154

Южный парк / South Park
Год выпуска: 2006
Страна: США
Жанр: Чёрный юмор, Сатира
Продолжительность серии: ~ 21 мин.
Перевод: Профессиональный (многоголосый, закадровый) (MTV)
Русские субтитры: нет
Режиссер: Мэтт Стоун, Tрей Паркер
Описание: “Саут-Парк” (South Park) это непристойный, сатирический, местами просто грубый, комедийный мультсериал, созданный Мэттом Стоуном и Треем Паркером.
В этом сериале, первоначально показываемом по кабельной телесети “Comedy Central”, рассказывается о не совсем реальных приключения четырёх восьмилетних ребят, живущих в маленьком городке Саут-Парк, штат Колорадо.
“Саут-Парк” успешно высмеивает многие аспекты американской жизни и культуры, равно как и текущие события, никогда не упуская возможности нарушить то или иное табу, и оборачивая всё это в толстый слой так называемого “сортирного юмора”.
Персонажи и окружающий мир Саут-Парка сделаны нарочито грубо, как будто они просто изготовлены из вырезанных кусочков бумаги. На самом деле Паркер и Стоун применяли такую технику в своих ранних работах, но что касается этого сериала, то он сделан с применением компьютерных программ (таких как Maya).
Главные персонажи — Эрик Картмэн, Стэн Марш, Кайл Брофловски и Кенни МакКормик. Одной из известных “изюминок” сериала является не совсем ожидаемая, порой просто ужасная, смерть Кенни почти в каждой серии. После этого Стэн говорит: “О Боже, они убили Кенни!”, а Кайл добавляет: “Сволочи!”. Но в каждом следующем эпизоде Кенни вновь предстает перед нами живой, как ни в чём не бывало (чтобы, однако, умереть снова).
Периодически в сериях появляются родители Кайла (Шейла и Джеральд), родители Стэна, мама Картмэна, безымянные родители Кенни, школьный повар Джером “Шеф” Макилрой, школьный учитель мистер Гарриссон со своей куклой мистером Шляпой, школьный психолог мистер Мэки, директриса Виктория, полицейский Барбрэди, мэр Саут-Парка, Венди Тестабургер, Леопольд “Баттерс” Стотч, Твик и Токен Вильямс (единственный чёрный ребенок в классе).
Качество: DVDRip
Формат: MKV
Видео: MPEG-4 AVC, 720x480, x264, 23.976 fps, ~ 800 kbps
Аудио: Русский MP3 2.0 - 160 kb/s; Английский DD 2.0 - 192 kb/s

Скриншоты

MI

Общее
Уникальный идентификатор : 229979655631234885343375546541308824552 (0xAD0478752DC33BA598B54F939772CBE8)
Полное имя : D:\Stuff\South Park DVDRip H264\S10\S10E01.DVDRip.H264.MIF.mkv
Формат : Matroska
Версия формата : Version 1
Размер файла : 183 Мбайт
Продолжительность : 22 м.
Общий поток : 1156 Кбит/сек
Дата кодирования : UTC 2008-07-29 21:37:41
Программа кодирования : mkvmerge v2.2.0 ('Turn It On Again') built on Mar 4 2008 12:58:26
Библиотека кодирования : libebml v0.7.7 + libmatroska v0.8.1
Видео
Идентификатор : 1
Формат : AVC
Формат/Информация : Advanced Video Codec
Профиль формата : High@L4
Параметр CABAC формата : Да
Параметр ReFrames формата : 16 кадров
Идентификатор кодека : V_MPEG4/ISO/AVC
Продолжительность : 22 м.
Битрейт : 800 Кбит/сек
Ширина : 720 пикселей
Высота : 480 пикселей
Соотношение сторон : 4:3
Соотношение сторон в оригинале : 3:2
Режим частоты кадров : Постоянный
Частота кадров : 23,976 кадра/сек
Цветовое пространство : YUV
Субдискретизация насыщенности : 4:2:0
Битовая глубина : 8 бит
Тип развёртки : Прогрессивная
Бит/(Пиксели*Кадры) : 0.097
Размер потока : 123 Мбайт (68%)
Библиотека кодирования : x264 core 60 r920M 8c8acae
Настройки программы : cabac=1 / ref=16 / deblock=1:-3:-3 / analyse=0x3:0x113 / me=umh / subme=7 / psy_rd=1.000000 / brdo=1 / mixed_ref=1 / me_range=24 / chroma_me=1 / trellis=2 / 8x8dct=1 / cqm=2 / deadzone=21,11 / chroma_qp_offset=0 / threads=6 / nr=0 / decimate=0 / mbaff=0 / bframes=16 / b_pyramid=1 / b_adapt=1 / b_bias=0 / direct=3 / wpredb=1 / bime=1 / keyint=250 / keyint_min=25 / scenecut=40(pre) / rc=2pass / bitrate=800 / ratetol=1.0 / rceq='blurCplx^(1-qComp)' / qcomp=1.00 / qpmin=10 / qpmax=51 / qpstep=4 / cplxblur=20.0 / qblur=0.5 / ip_ratio=1.40 / pb_ratio=1.30 / aq=2:1.00
Язык : English
Default : Да
Forced : Нет
Аудио #1
Идентификатор : 2
Формат : MPEG Audio
Версия формата : Version 1
Профиль формата : Layer 3
Режим : Joint stereo
Расширение режима : MS Stereo
Идентификатор кодека : A_MPEG/L3
Идентификатор кодека/Подсказка : MP3
Продолжительность : 22 м.
Вид битрейта : Постоянный
Битрейт : 160 Кбит/сек
Каналы : 2 канала
Частота : 44,1 КГц
Метод сжатия : С потерями
Размер потока : 25,3 Мбайт (14%)
Библиотека кодирования : LAME3.98 (beta)ЄЄЄЄЄ
Язык : Russian
Default : Да
Forced : Нет
Аудио #2
Идентификатор : 3
Формат : AC-3
Формат/Информация : Audio Coding 3
Расширение режима : CM (complete main)
Параметр Endianness формата : Big
Идентификатор кодека : A_AC3
Продолжительность : 22 м.
Вид битрейта : Постоянный
Битрейт : 192 Кбит/сек
Каналы : 2 канала
Расположение каналов : Front: L R
Частота : 48,0 КГц
Метод сжатия : С потерями
Размер потока : 30,3 Мбайт (17%)
Язык : English
Default : Нет
Forced : Нет
[cybertorrent.ru].t849.torrent 
Торрент: Зарегистрирован [ 2018-02-15 22:25 ] · A9442101B6C84AD1232F06123435DB575B316658

Скачать .torrent

Скачать

14 KB

Статус: проверено
Скачан: 0 раз
Размер: 2,5 GB
Профиль [ЛС]
Показать сообщения:    

Текущее время: 23-Май 16:24

Часовой пояс: UTC ± 0



Вы не можете начинать темы
Вы не можете отвечать на сообщения
Вы не можете редактировать свои сообщения
Вы не можете удалять свои сообщения
Вы не можете голосовать в опросах
Вы не можете прикреплять файлы к сообщениям
Вы можете скачивать файлы