Статистика раздачи
Размер:  5,8 GB   |    Зарегистрирован:  6 месяцев 28 дней   |    Скачан:  0 раз

Полного источника не было: Никогда

   
 

Гость ®

Пол:
Не указан

ЧЁРНЫЙ СПИСОКThe Blacklist- Год выпуска: 2019
Страна: США
Жанр: Драма, криминал
Продолжительность: ~00:43:00
Перевод: Профессиональный (многоголосый закадровый) Студия «Profix Media»-Режиссёр: Джо Карнахан
В ролях: Джеймс Спэйдер, Меган Бун, Диего Клаттенхофф, Гарри Дж. Ленникс, Райан Игголд, Ильфенеш Хадера, Джессика Ши Элверсон, Чарльз Бэйкер, Дельфина Белль, Ник Блеймаер, Кристен Риттер, Мэри-Луиз Паркер-Описание: В шестом сезоне, в жизни Рэда Рэддингтона (Джеймс Спейдер) начнется новый, причем не особо радостный, этап.
Рэду придется очень нелегко: его люди помочь не могут, а судья по делу даже не притворяется беспристрастной, считая главного героя «Черного списка» дьяволом во плоти. Единственным человеком, на которого Рэд еще надеется, остается Лиз (Меган Бун), вот только он пока не в курсе, что ей известна правда о нем.LostFilm-Доп. информация: Без рекламных ВидеоАудио вставок-Всем нетерпеливым, канал на отдачу маленький.
Ныть где сид, поддайте скорости не нужно. Не нравится - идите мимо, найдите Альтернативные раздачи, без негативных комментариев здесь.
-Альтернативные раздачи
Сэмпл-Качество: WEBRip
Формат: AVI
Видео: XviD, 720x400 (16:9), 23.976 fps, ~1500 kbps
Аудио Rus: MP3, 48 kHz, 2 ch, 128 kbps
Аудио Eng: MP3, 48 kHz, 2 ch, 128 kbps
Субтитры: отсутствуют
Реклама: отсутствует

MediaInfo

Код:Полное имя : The.Blacklist.S06.WEBRip.RusEng.Profix.Media\The.Blacklist.S06E02.WEBRip.RusEng.Profix.Media.J.avi
Формат : AVI
Формат/Информация : Audio Video Interleave
Размер файла : 540 Мбайт
Продолжительность : 42 м. 32 с.
Общий поток : 1776 Кбит/сек
Программа кодирования : VirtualDubMod 1.5.10.3 (build 2550/release)
Библиотека кодирования : VirtualDubMod build 2550/release
Видео
Идентификатор : 0
Формат : MPEG-4 Visual
Профиль формата : Advanced Simple@L5
Настройки формата : BVOP1
Параметр BVOP формата : 1
Параметр QPel формата : Нет
Параметр GMC формата : Без точки перехода
Параметр матрицы формата : Default (H.263)
Идентификатор кодека : XVID
Идентификатор кодека/Подсказка : XviD
Продолжительность : 42 м. 32 с.
Битрейт : 1506 Кбит/сек
Ширина : 720 пикселей
Высота : 400 пикселей
Соотношение сторон : 16:9
Частота кадров : 23,976 (24000/1001) кадра/сек
Цветовое пространство : YUV
Субдискретизация насыщенности : 4:2:0
Битовая глубина : 8 бит
Тип развёртки : Прогрессивная
Метод сжатия : С потерями
Бит/(Пиксели*Кадры) : 0.218
Размер потока : 458 Мбайт (85%)
Библиотека кодирования : XviD 1.2.1 (UTC 2008-12-04)
Аудио #1
Идентификатор : 1
Формат : MPEG Audio
Версия формата : Version 1
Профиль формата : Layer 3
Настройки формата : Joint stereo / MS Stereo
Режим : Joint stereo
Расширение режима : MS Stereo
Идентификатор кодека : 55
Идентификатор кодека/Подсказка : MP3
Продолжительность : 42 м. 32 с.
Вид битрейта : Постоянный
Битрейт : 128 Кбит/сек
Каналы : 2 канала
Частота : 48,0 КГц
Метод сжатия : С потерями
Размер потока : 39,0 Мбайт (7%)
Выравнивание : Соединение по промежуткам
Продолжительность промежутка : 42 мс. (1,00 видеокадр)
Время предзагрузки промежутка : 504 мс.
Аудио #2
Идентификатор : 2
Формат : MPEG Audio
Версия формата : Version 1
Профиль формата : Layer 3
Настройки формата : Joint stereo / MS Stereo
Режим : Joint stereo
Расширение режима : MS Stereo
Идентификатор кодека : 55
Идентификатор кодека/Подсказка : MP3
Продолжительность : 42 м. 32 с.
Вид битрейта : Постоянный
Битрейт : 128 Кбит/сек
Каналы : 2 канала
Частота : 48,0 КГц
Метод сжатия : С потерями
Размер потока : 39,0 Мбайт (7%)
Выравнивание : Соединение по промежуткам
Продолжительность промежутка : 42 мс. (1,00 видеокадр)
Время предзагрузки промежутка : 504 мс.

Скриншоты

Внимание! Раздача ведётся путём добавления новых серий

Внимание! Раздача ведётся путём добавления новых серий; при каждом добавлении создаётся новый торрент. Чтобы начать докачку новой серии, пользователям необходимо сделать следующее:
(1) остановить скачивание,
(2) удалить старый торрент у себя из клиента (старые серии удалять не надо),
(3) скачать новый торрент и запустить его у себя в клиенте вместо старого, при этом указать клиенту путь в старую папку куда и должно происходить скачивание новых серий.
Ваш клиент при этом должен произвести хеширование (проверку) старой папки (если не производит сам - помогите ему сделать это), и будет докачивать только те серии которых у вас ещё нет. Старые серии при этом не удаляются, а продолжают раздаваться!
Eсли вы уже удалили старые серии, то предотвратить повторную закачку старых серий можно, отжав галочку в соответствующих местах при запуске нового торрента. По возможности, желательно не удалять старые серии как можно дольше чтобы релизёр не столько продолжал раздавать старые серии, а смог сконцентрироваться на новых.
[cybertorrent.ru].t852.torrent 
Торрент: Зарегистрирован [ 2019-03-19 15:46 ] · B140D0F760C8A125B7C239F4AD514C7293010CD5

Скачать .torrent

Скачать

30 KB

Статус: проверено
Скачан: 0 раз
Размер: 5,8 GB
terms.php
Показать сообщения:    

Текущее время: 17-Окт 07:58

Часовой пояс: UTC ± 0



Вы не можете начинать темы
Вы не можете отвечать на сообщения
Вы не можете редактировать свои сообщения
Вы не можете удалять свои сообщения
Вы не можете голосовать в опросах
Вы не можете прикреплять файлы к сообщениям
Вы можете скачивать файлы