Статистика раздачи
Размер:  7,44 GB   |    Зарегистрирован:  3 месяца 9 дней   |    Скачан:  0 раз

Полного источника не было: Никогда

 
   
 
 

lika ®

Пол:
Не указан
Стаж:
3 месяца 9 дней
Сообщений:
187

Обязательства / Группа Коммитментс / The Commitments
Страна: Ирландия, Великобритания, США
Жанр: драма, комедия, музыка
Год выпуска: 1991
Продолжительность: 01:52:40
Перевод: Профессиональный (многоголосый, закадровый)
Субтитры: немецкие, немецкие (СС), испанские, английские
Оригинальная аудиодорожка: английская
Режиссер: Алан Паркер / Alan Parker
В ролях: Роберт Аркинс, Майкл Ахерн, Анджелин Болл, Мария Дойл Кеннеди, Дэйв Финнегэн, Брона Галлахер, Фелим Гормли, Глен Хансард, Дик Мэсси, Джонни Мерфи
Описание: Джимми, безработный парень из Дублина, вместе со своими сверстниками создает группу «Коммитментс». Желая возродить интерес публики к некогда популярному стилю соул, группа начинает круглосуточные репетиции. Затем приходит слава. Но именно она начинает обнажать самые неприглядные стороны каждого из «Коммитментс»…
Дополнительные материалы: The Making of the Commitments, Alan Parker film biography, The Making of Alan Parker's film the Commitments, Music video "Treat Her Right", Teaser trailer, Original Theatrical trailer
Меню: есть, анимированное
Тип релиза: DVD9 (Custom)
Контейнер: DVD-Video
Видео: PAL 16:9 (720x576(0.490)) MPEG Video, 25,000 кадр/сек, 5079 Кбит/сек
Аудио: Russian (Dolby AC-3, 2 ch) 192 Кбит/сек, 48.0 КГц
Аудио 2: Spanish (Dolby AC-3, 6 ch) 448 Кбит/сек, 48.0 КГц
Аудио 3: English (Dolby AC-3, 6 ch) 448 Кбит/сек, 48.0 КГц

Доп. информация по релизу

Это оригинальный диск. В нём немецкая аудиодорожка заменена на русскую. Всё остальное - сохранено.
В доп. материалах перевода и русских субтитров нет!

MediaInfo

Общее
Полное имя : The.Commitments.DVD9.MIF\VIDEO_TS\VTS_01_1.VOB
Формат : MPEG-PS
Размер файла : 1024 Мбайт
Продолжительность : 22 м. 45 с.
Режим общего битрейта : Переменный
Общий поток : 6292 Кбит/сек
Видео
Идентификатор : 224 (0xE0)
Формат : MPEG Video
Версия формата : Version 2
Профиль формата : Main@Main
Настройки формата : CustomMatrix / BVOP
Параметр BVOP формата : Да
Параметр матрицы формата : Выборочная
Параметр GOP формата : M=3, N=12
Продолжительность : 22 м. 45 с.
Вид битрейта : Переменный
Битрейт : 5079 Кбит/сек
Максимальный битрейт : 9800 Кбит/сек
Ширина : 720 пикселей
Высота : 576 пикселей
Соотношение сторон : 16:9
Частота кадров : 25,000 кадров/сек
Стандарт вещания : PAL
Цветовое пространство : YUV
Субдискретизация насыщенности : 4:2:0
Битовая глубина : 8 бит
Метод сжатия : С потерями
Бит/(Пиксели*Кадры) : 0.490
Размер потока : 827 Мбайт (81%)
Аудио #1
Идентификатор : 189 (0xBD)-128 (0x80)
Формат : AC-3
Формат/Информация : Audio Coding 3
Режим смешивания : DVD-Video
Продолжительность : 22 м. 45 с.
Вид битрейта : Постоянный
Битрейт : 192 Кбит/сек
Каналы : 2 канала
Расположение каналов : Front: L R
Частота : 48,0 КГц
Частота кадров : 31,250 кадров/сек (1536 SPF)
Битовая глубина : 16 бит
Метод сжатия : С потерями
Размер потока : 31,2 Мбайт (3%)
ServiceKind/String : Complete Main
Аудио #2
Идентификатор : 189 (0xBD)-129 (0x81)
Формат : AC-3
Формат/Информация : Audio Coding 3
Режим смешивания : DVD-Video
Продолжительность : 22 м. 45 с.
Вид битрейта : Постоянный
Битрейт : 448 Кбит/сек
Каналы : 6 каналов
Расположение каналов : Front: L C R, Side: L R, LFE
Частота : 48,0 КГц
Частота кадров : 31,250 кадров/сек (1536 SPF)
Битовая глубина : 16 бит
Метод сжатия : С потерями
Размер потока : 72,9 Мбайт (7%)
ServiceKind/String : Complete Main
Аудио #3
Идентификатор : 189 (0xBD)-130 (0x82)
Формат : AC-3
Формат/Информация : Audio Coding 3
Режим смешивания : DVD-Video
Продолжительность : 22 м. 45 с.
Вид битрейта : Постоянный
Битрейт : 448 Кбит/сек
Каналы : 6 каналов
Расположение каналов : Front: L C R, Side: L R, LFE
Частота : 48,0 КГц
Частота кадров : 31,250 кадров/сек (1536 SPF)
Битовая глубина : 16 бит
Метод сжатия : С потерями
Размер потока : 72,9 Мбайт (7%)
ServiceKind/String : Complete Main
Текст #1
Идентификатор : 189 (0xBD)-33 (0x21)
Формат : RLE
Формат/Информация : Run-length encoding
Режим смешивания : DVD-Video
Продолжительность : 22 м. 42 с.
Задержка видео : 1 с. 400 мс.
Текст #2
Идентификатор : 189 (0xBD)-35 (0x23)
Формат : RLE
Формат/Информация : Run-length encoding
Режим смешивания : DVD-Video
Продолжительность : 22 м. 38 с.
Задержка видео : 5 с. 480 мс.
Текст #3
Идентификатор : 189 (0xBD)-32 (0x20)
Формат : RLE
Формат/Информация : Run-length encoding
Режим смешивания : DVD-Video
Текст #4
Идентификатор : 189 (0xBD)-34 (0x22)
Формат : RLE
Формат/Информация : Run-length encoding
Режим смешивания : DVD-Video
Текст #5
Идентификатор : 189 (0xBD)-36 (0x24)
Формат : RLE
Формат/Информация : Run-length encoding
Режим смешивания : DVD-Video

Скриншоты меню

Скриншоты

Скриншоты доп. материалов

[cybertorrent.ru].t856.torrent 
Торрент: Зарегистрирован [ 2018-02-15 22:25 ] · 4FCA800320891F6B8E62C00FCF1F394590B7D6E0

Скачать .torrent

Скачать

20 KB

Статус: проверено
Скачан: 0 раз
Размер: 7,44 GB
Профиль [ЛС]
Показать сообщения:    

Текущее время: 25-Май 08:51

Часовой пояс: UTC ± 0



Вы не можете начинать темы
Вы не можете отвечать на сообщения
Вы не можете редактировать свои сообщения
Вы не можете удалять свои сообщения
Вы не можете голосовать в опросах
Вы не можете прикреплять файлы к сообщениям
Вы можете скачивать файлы