Статистика раздачи
Размер:  1,37 GB   |    Зарегистрирован:  27 дней   |    Скачан:  0 раз

Полного источника не было: Никогда

 
     
 
 

Floyd ®

Пол:
Мужской
Стаж:
7 месяцев 25 дней
Сообщений:
1521

Валери / Valerie
Страна: США
Студия: Hal R. Makelim Productions
Жанр: драма
Год выпуска: 1957
Продолжительность: 01:22:10
Перевод: Одноголосый закадровый - Алексей Багичев
Субтитры: нет
Оригинальная аудиодорожка: английский
Режиссер: Герд Освальд / Gerd Oswald
Композитор: Альберт Глассер / Albert Glasser
В ролях: Стерлинг Хейден / Sterling Hayden ... Джон Гарт
Анита Экберг / Anita Ekberg ... Валери Хорват
Энтони Стил / Anthony Steel ... преподобный Стивен Блейк
Питер Уокер / Peter Walker ... Херб Гарт
Джон Венграф / John Wengraf ... Лу Хорват
Ифигения Кастильони / Iphigenie Castiglioni ... миссис Хорват
Джеред Барклай / Jered Barclay ... Джим Минго
Роберт Адлер / Robert Adler ... Ланди
Гейдж Кларк / Gage Clarke ... Джонатан Григгс
Том МакКи / Tom McKee ... Дэйв Карлин
Сидни Смит / Sydney Smith ... судья Фрисби
Стэнли Адамс / Stanley Adams ... доктор Джексон

Описание: Джон Гарт арестован за тяжкое ранение своей жены Валери и убийство ее родителей. Во время суда Джон и Валери представляют каждый свою версию событий, приведших к трагической развязке.--Качество видео: DVDRip
Формат видео: AVI
Видео: XviD, 640x480 (1.33:1), 23.976 fps, 1991 Kbps
Аудио 1: AC3, 48.0 KHz, 2 ch., 192 Kbps (русский одноголосый закадровый перевод) - Алексей Багичев
Аудио 2: AC3, 48.0 KHz, 2 ch., 192 Kbps (оригинальная английская звуковая дорожка)

MediaInfo

Общее
Полное имя : R:\РАЗДАЧИ\РИПЫ\Valerie 1957\Valerie.avi
Формат : AVI
Формат/Информация : Audio Video Interleave
Размер файла : 1,37 Гбайт
Продолжительность : 1 ч. 22 м.
Общий поток : 2389 Кбит/сек
Программа кодирования : VirtualDubMod 1.5.10.3 | www.virtualdub-fr.org || (build 2550/release)
Библиотека кодирования : VirtualDubMod build 2550/release
Видео
Идентификатор : 0
Формат : MPEG-4 Visual
Профиль формата : Advanced Simple@L5
Параметр BVOP формата : 2
Параметр QPel формата : Нет
Параметр GMC формата : Без точки перехода
Параметр матрицы формата : Default (H.263)
Идентификатор кодека : XVID
Идентификатор кодека/Подсказка : XviD
Продолжительность : 1 ч. 22 м.
Битрейт : 1991 Кбит/сек
Ширина : 640 пикселей
Высота : 480 пикселей
Соотношение сторон : 4:3
Частота кадров : 23,976 (24000/1001) кадра/сек
Цветовое пространство : YUV
Субдискретизация насыщенности : 4:2:0
Битовая глубина : 8 бит
Тип развёртки : Прогрессивная
Метод сжатия : С потерями
Бит/(Пиксели*Кадры) : 0.270
Размер потока : 1,14 Гбайт (83%)
Библиотека кодирования : XviD 73
Аудио #1
Идентификатор : 1
Формат : AC-3
Формат/Информация : Audio Coding 3
Параметр Endianness формата : Big
Идентификатор кодека : 2000
Продолжительность : 1 ч. 22 м.
Вид битрейта : Постоянный
Битрейт : 192 Кбит/сек
Каналы : 2 канала
Расположение каналов : Front: L R
Частота : 48,0 КГц
Частота кадров : 31,250 кадров/сек (1536 spf)
Битовая глубина : 16 бит
Метод сжатия : С потерями
Размер потока : 113 Мбайт (8%)
Выравнивание : Разделение по промежуткам
Продолжительность промежутка : 42 мс. (1,00 видеокадр)
Время предзагрузки промежутка : 500 мс.
ServiceKind/String : Complete Main
Аудио #2
Идентификатор : 2
Формат : AC-3
Формат/Информация : Audio Coding 3
Параметр Endianness формата : Big
Идентификатор кодека : 2000
Продолжительность : 1 ч. 22 м.
Вид битрейта : Постоянный
Битрейт : 192 Кбит/сек
Каналы : 2 канала
Расположение каналов : Front: L R
Частота : 48,0 КГц
Частота кадров : 31,250 кадров/сек (1536 spf)
Битовая глубина : 16 бит
Метод сжатия : С потерями
Размер потока : 113 Мбайт (8%)
Выравнивание : Разделение по промежуткам
Продолжительность промежутка : 42 мс. (1,00 видеокадр)
Время предзагрузки промежутка : 500 мс.
ServiceKind/String : Complete Main
[cybertorrent.ru].t8599.torrent 
Торрент: Зарегистрирован [ 2019-10-26 12:24 ] · 25A3741DB7EEC1C4DBDCDFC66C976ADEFB5CA44A

Скачать .torrent

Скачать

14 KB

Статус: проверено
Скачан: 0 раз
Размер: 1,37 GB
terms.php
Профиль [ЛС]
Показать сообщения:    

Текущее время: 23-Ноя 01:20

Часовой пояс: UTC ± 0



Вы не можете начинать темы
Вы не можете отвечать на сообщения
Вы не можете редактировать свои сообщения
Вы не можете удалять свои сообщения
Вы не можете голосовать в опросах
Вы не можете прикреплять файлы к сообщениям
Вы можете скачивать файлы