Статистика раздачи
Размер:  800 MB   |    Зарегистрирован:  3 месяца 11 дней   |    Скачан:  0 раз

Полного источника не было: Никогда

 
   
 
 

lopster ®

Пол:
Не указан
Стаж:
3 месяца 11 дней
Сообщений:
612

Каникулы любви
Год выпуска: 2008
Жанр: Мелодрама
Продолжительность: 01:31:20
Режиссер: Вадим Арапов
В ролях: Дмитрий Харатьян, Ирина Гринева, Алексей Казаков, Анатолий Лобоцкий, Борис Романов, Елена Сачук, Олег Шибаев, Борис Эстрин
Описание: Их связь началась через пару месяцев после того, как Александра со своим мужем-бизнесменом купили дом в коттеджном посёлке. На следующий день после заселения, к новоселам пришли знакомиться соседи. Саша познакомилась с Глебом и его женой и ... тут же влюбилась в своего соседа! Это было как удар молнией! Казалось, все ее юношеские мечты о прекрасном принце воплотились в этом человеке, - ярком, талантливом художнике ...
Между соседями завязываются дружеские отношения... Они часто проводят вместе вечера, жарят шашлыки, играют в преферанс. И все это время Саша умело скрывает свою симпатию к соседу. Все произошло случайно... В сентябре... в поисках грибов они неожиданно встретились в лесу... Глеб предложил ей посмотреть его заветное грибное место на берегу озера... Они немного заблудились...
И после этого все закрутилось, оба потеряли голову. Понимая, что все это неправильно, безответственно, они были не в силах этому противиться!
Доп. информация: Производство: компания «Мостелефильм» по заказу «Стар Медиа»
Все раздачи фильма: Каникулы любви
Качество: SATRip
Формат: AVI
Видео кодек: DivX
Аудио кодек: MP3
Видео: 640x368 (1.74:1), 25 fps, DivX Codec 5.x or 6.x ~1089 kbps avg, 0.19 bit/pixel
Аудио: 48 kHz, MPEG Layer 3, 1 ch, ~128.00 kbps avg
Релиз: Ceryj

MI

Код:Общее
Полное имя : C:\otkat\Видео\Каникулы любви\Kanikuly_lubvy_SATRip_by_Ceryj.avi
Формат : AVI
Формат/Информация : Audio Video Interleave
Размер файла : 800 Мбайт
Продолжительность : 1 ч. 31 м.
Общий поток : 1225 Кбит/сек
Программа кодирования : VirtualDubMod 1.5.4.1 (build 2178/release)
Библиотека кодирования : VirtualDubMod build 2178/release
Видео
Идентификатор : 0
Формат : MPEG-4 Visual
Параметр BVOP формата : 1
Параметр QPel формата : Нет
Параметр GMC формата : Без точки перехода
Параметр матрицы формата : Default (H.263)
Режим смешивания : Сжатый битовый поток
Идентификатор кодека : DX50
Идентификатор кодека/Подсказка : DivX 5
Продолжительность : 1 ч. 31 м.
Битрейт : 1090 Кбит/сек
Ширина : 640 пикселей
Высота : 368 пикселей
Соотношение сторон : 1,739
Частота кадров : 25,000 кадров/сек
Цветовое пространство : YUV
Субдискретизация насыщенности : 4:2:0
Битовая глубина : 8 бит
Тип развёртки : Прогрессивная
Метод сжатия : С потерями
Бит/(Пиксели*Кадры) : 0.185
Размер потока : 712 Мбайт (89%)
Библиотека кодирования : DivX 6.8.3-6.8.4 (UTC 2008-06-07)
Аудио
Идентификатор : 1
Формат : MPEG Audio
Версия формата : Version 1
Профиль формата : Layer 3
Идентификатор кодека : 55
Идентификатор кодека/Подсказка : MP3
Продолжительность : 1 ч. 31 м.
Вид битрейта : Постоянный
Битрейт : 128 Кбит/сек
Каналы : 1 канал
Частота : 48,0 КГц
Метод сжатия : С потерями
Размер потока : 83,6 Мбайт (10%)
Выравнивание : Соединение по промежуткам
Продолжительность промежутка : 80 мс. (2,00 видеокадра)
Время предзагрузки промежутка : 504 мс.
Библиотека кодирования : LAME3.97
Настройки программы : -m m -V 4 -q 2 -lowpass 20.5 -b 128

Скриншоты


[cybertorrent.ru].t86.torrent 
Торрент: Зарегистрирован [ 2018-02-15 13:57 ] · ADAFA465A7EB65A4DE0B84B00A3543F879AACB53

Скачать .torrent

Скачать

16 KB

Статус: проверено
Скачан: 0 раз
Размер: 800 MB
Профиль [ЛС]
Показать сообщения:    

Текущее время: 26-Май 15:45

Часовой пояс: UTC ± 0



Вы не можете начинать темы
Вы не можете отвечать на сообщения
Вы не можете редактировать свои сообщения
Вы не можете удалять свои сообщения
Вы не можете голосовать в опросах
Вы не можете прикреплять файлы к сообщениям
Вы можете скачивать файлы