Статистика раздачи
Размер:  10,83 GB   |    Зарегистрирован:  27 дней   |    Скачан:  0 раз

Полного источника не было: Никогда

 
     
 
 

Floyd ®

Пол:
Мужской
Стаж:
7 месяцев 25 дней
Сообщений:
1521

Школьные джунгли / Джунгли за школьной доской / Blackboard Jungle
Страна: США
Студия: Metro-Goldwyn-Mayer (MGM)
Жанр: драма, криминал
Год выпуска: 1955
Продолжительность: 01:40:34
Перевод: Профессиональный (двухголосый закадровый) НТВ+
Перевод 2: Авторский (одноголосый, закадровый) Сергей Кузнецов
Субтитры: английские
Оригинальная аудиодорожка: английский
Режиссер: Ричард Брукс /Richard Brooks
В ролях: Гленн Форд, Энн Фрэнсис, Луис Калхерн, Маргарет Хэйс, Джон Хойт, Ричард Кайли, Эмиль Мейер, Уорнер Андерсон, Бэзил Райсдэл, Сидни Пуатье, Вик Морроу, Дэн Терранова, Рафаэль Кампос, Пол Мазурски

Описание: Учитель Ричард Дэдьер получает назначение в школу, где учится очень много трудных подростков, а учителя смирились с тем, что потеряли контроль над учениками. Ричард пытается завоевать авторитет среди своих учеников, однако наталкивается на враждебность. Ситуация доходит до того, что начинают угрожать беременной жене Дэдьера. В ярости он обвиняет во всем чернокожего ученика Грегори Миллера, которого он считает главным зачинщиком в классе. Но не ошибается ли Дэдьер, подозревая Грегори только из-за его цвета кожи?
Контейнер: MKV
Видео: MPEG4 AVC Video, H264, 16:9, 1920x1080, 23.976 fps, 14.5 Mbps
Аудио: Russian (AC3, 2 ch, 192 kbps, 16 bits, 48.0 KHz) - DVO
Аудио 2: Russian (AC3, 2 ch, 192 kbps, 16 bits, 48.0 KHz) - AVO
Аудио 3: English (AC3, 1 ch, 192 kbps, 16 bits, 48.0 KHz) - оригинал WEB-DL
Формат субтитров: softsub (SRT)

MediaInfo

General
Unique ID : 229043237330138454940116855402557527478 (0xAC501F788F606C148007CC692476D5B6)
Complete name : H:\Blackboard.Jungle.1955.WEB-DL.1080p-SbR.mkv
Format : Matroska
Format version : Version 4 / Version 2
File size : 10.8 GiB
Duration : 1 h 40 min
Overall bit rate mode : Variable
Overall bit rate : 15.4 Mb/s
Encoded date : UTC 2019-10-25 06:50:04
Writing application : mkvmerge v6.1.0 ('Old Devil') built on Mar 2 2013 14:32:37
Writing library : libebml v1.3.0 + libmatroska v1.4.0
Video
ID : 1
Format : AVC
Format/Info : Advanced Video Codec
Format profile : High@L4
Format settings : CABAC / 4 Ref Frames
Format settings, CABAC : Yes
Format settings, ReFrames : 4 frames
Codec ID : V_MPEG4/ISO/AVC
Duration : 1 h 40 min
Bit rate mode : Variable
Bit rate : 14.5 Mb/s
Maximum bit rate : 15.0 Mb/s
Width : 1 920 pixels
Height : 1 080 pixels
Display aspect ratio : 16:9
Frame rate mode : Constant
Frame rate : 23.976 (24000/1001) FPS
Color space : YUV
Chroma subsampling : 4:2:0
Bit depth : 8 bits
Scan type : Progressive
Bits/(Pixel*Frame) : 0.292
Stream size : 10.2 GiB (94%)
Writing library : x264 core 148 r2623 d5b2374
Encoding settings : cabac=1 / ref=4 / deblock=1:-1:-1 / analyse=0x3:0x133 / me=umh / subme=9 / psy=1 / psy_rd=1.00:0.15 / mixed_ref=1 / me_range=24 / chroma_me=1 / trellis=2 / 8x8dct=1 / cqm=0 / deadzone=21,11 / fast_pskip=1 / chroma_qp_offset=-3 / threads=34 / lookahead_threads=5 / sliced_threads=0 / nr=150 / decimate=1 / interlaced=0 / bluray_compat=0 / constrained_intra=0 / bframes=8 / b_pyramid=2 / b_adapt=2 / b_bias=0 / direct=3 / weightb=1 / open_gop=0 / weightp=2 / keyint=120 / keyint_min=61 / scenecut=0 / intra_refresh=0 / rc_lookahead=120 / rc=crf / mbtree=1 / crf=18.0 / qcomp=0.60 / qpmin=0 / qpmax=69 / qpstep=4 / vbv_maxrate=15000 / vbv_bufsize=31250 / crf_max=0.0 / nal_hrd=vbr / filler=0 / ip_ratio=1.40 / aq=3:1.00
Language : English
Default : Yes
Forced : No
Color range : Limited
Color primaries : BT.709
Transfer characteristics : BT.709
Matrix coefficients : BT.709
Audio #1
ID : 2
Format : AC-3
Format/Info : Audio Coding 3
Codec ID : A_AC3
Duration : 1 h 40 min
Bit rate mode : Constant
Bit rate : 192 kb/s
Channel(s) : 2 channels
Channel positions : Front: L R
Sampling rate : 48.0 kHz
Frame rate : 31.250 FPS (1536 SPF)
Bit depth : 16 bits
Compression mode : Lossy
Stream size : 138 MiB (1%)
Title : НТВ+
Language : Russian
Service kind : Complete Main
Default : Yes
Forced : No
Audio #2
ID : 3
Format : AC-3
Format/Info : Audio Coding 3
Codec ID : A_AC3
Duration : 1 h 40 min
Bit rate mode : Constant
Bit rate : 192 kb/s
Channel(s) : 2 channels
Channel positions : Front: L R
Sampling rate : 48.0 kHz
Frame rate : 31.250 FPS (1536 SPF)
Bit depth : 16 bits
Compression mode : Lossy
Stream size : 138 MiB (1%)
Title : С.Кузнецов
Language : Russian
Service kind : Complete Main
Default : No
Forced : No
Audio #3
ID : 4
Format : AC-3
Format/Info : Audio Coding 3
Codec ID : A_AC3
Duration : 1 h 40 min
Bit rate mode : Constant
Bit rate : 192 kb/s
Channel(s) : 1 channel
Channel positions : Front: C
Sampling rate : 48.0 kHz
Frame rate : 31.250 FPS (1536 SPF)
Bit depth : 16 bits
Compression mode : Lossy
Stream size : 138 MiB (1%)
Language : English
Service kind : Complete Main
Default : No
Forced : No
Text #1
ID : 5
Format : UTF-8
Codec ID : S_TEXT/UTF8
Codec ID/Info : UTF-8 Plain Text
Language : English
Default : No
Forced : No
Text #2
ID : 6
Format : UTF-8
Codec ID : S_TEXT/UTF8
Codec ID/Info : UTF-8 Plain Text
Title : SDH
Language : English
Default : No
Forced : No

Скриншоты


[cybertorrent.ru].t8604.torrent 
Торрент: Зарегистрирован [ 2019-10-26 12:31 ] · 2E8348D8F058E3BD7B42085D3ADE42CB55C50CEA

Скачать .torrent

Скачать

55 KB

Статус: проверено
Скачан: 0 раз
Размер: 10,83 GB
terms.php
Профиль [ЛС]
Показать сообщения:    

Текущее время: 23-Ноя 02:32

Часовой пояс: UTC ± 0



Вы не можете начинать темы
Вы не можете отвечать на сообщения
Вы не можете редактировать свои сообщения
Вы не можете удалять свои сообщения
Вы не можете голосовать в опросах
Вы не можете прикреплять файлы к сообщениям
Вы можете скачивать файлы