Статистика раздачи
Размер:  12,5 GB   |    Зарегистрирован:  27 дней   |    Скачан:  0 раз
Сидов:  11  [  0 KB/s  ]   Личеров:  2  [  0 KB/s  ]  
 
     
 
 

Floyd ®

Пол:
Мужской
Стаж:
7 месяцев 25 дней
Сообщений:
1521

Гарри Поттер и Принц-полукровка / Harry Potter and the Half-Blood Prince / Open Matte
Страна: США, Великобритания
Жанр: фэнтези, приключения, семейный
Год выпуска: 2009
Продолжительность: 02:33:38
Перевод 1: Профессиональный (дублированный) Лицензия
Перевод 2: Авторский (одноголосый закадровый) Ю. Сербин
Субтитры: русские (forced, full), английские (full)
Оригинальная аудиодорожка: английский
Режиссер: Дэвид Йэтс / David Yates
В ролях: Дэниэл Рэдклифф, Руперт Гринт, Эмма Уотсон, Джим Бродбент, Эларика Галлахер, Робби Колтрейн, Майкл Гэмбон, Мэгги Смит, Алан Рикман, Бонни Райт, Эванна Линч, Джеральдин Сомервилль, Джемма Джонс, Девон Мюррэй, Наталия Тена, Афшан Азад
Описание: Теперь не только мир волшебников, но и мир маглов ощущает на себе все возрастающую силу Волан-де-Морта, а Хогвартс уже никак не назовешь надежным убежищем, каким он был раньше. Гарри подозревает, что в самом замке затаилась некая опасность, но Дамблдор больше сосредоточен на том, чтобы подготовить его к финальной схватке, которая, как он знает, уже не за горами. Вместе они пытаются разгадать секрет бессмертия Волан-де-Морта.
Тем временем учеников атакуют самые разные враги, а подростковые эмоции хлещут через край. Пока романтические отношения расцветают, лишь один ученик остается в стороне. Он твердо намерен оставить свою метку, темную метку. Любовь витает в воздухе, но впереди ждет беда, и Хогвартс, возможно, уже никогда не будет прежним.
Качество видео: WEB-DL 1080p
Формат видео: MKV
Видео: 1920x1080, 23.976 fps, MPEG-4 AVC, 10.1 Mb/s
Аудио 1: Russian: 48 kHz, AC3, 6 ch, ~448 kbps avg - DUB
Аудио 2: Russian: 48 kHz, AC3, 6 ch, ~448 kbps avg - AVO Ю. Сербин
Аудио 3: English: 48 kHz, E-AC3, 6 ch, ~640 kbps avg
Формат субтитров: softsub (SRT)

MediaInfo

General
Unique ID : 236068730096308951923372482763669258296 (0xB1992F01E3F032DE88127B035B624038)
Complete name : D:\Harry Potter and the Half-Blood Prince (2009) Open Matte 1080p.mkv
Format : Matroska
Format version : Version 4
File size : 12.5 GiB
Duration : 2 h 33 min
Overall bit rate mode : Variable
Overall bit rate : 11.6 Mb/s
Encoded date : UTC 2019-10-20 18:26:39
Writing application : mkvmerge v8.3.0 ('Over the Horizon') 32bit
Writing library : libebml v1.3.1 + libmatroska v1.4.2
Video
ID : 1
Format : AVC
Format/Info : Advanced Video Codec
Format profile : High@L4
Format settings : CABAC / 4 Ref Frames
Format settings, CABAC : Yes
Format settings, Reference : 4 frames
Codec ID : V_MPEG4/ISO/AVC
Duration : 2 h 33 min
Bit rate mode : Variable
Bit rate : 10.1 Mb/s
Maximum bit rate : 15.0 Mb/s
Width : 1 920 pixels
Height : 1 080 pixels
Display aspect ratio : 16:9
Frame rate mode : Constant
Frame rate : 23.976 (24000/1001) FPS
Color space : YUV
Chroma subsampling : 4:2:0
Bit depth : 8 bits
Scan type : Progressive
Bits/(Pixel*Frame) : 0.203
Stream size : 10.8 GiB (87%)
Default : Yes
Forced : No
Color range : Limited
Color primaries : BT.709
Transfer characteristics : BT.709
Matrix coefficients : BT.709
Audio #1
ID : 2
Format : AC-3
Format/Info : Audio Coding 3
Commercial name : Dolby Digital
Codec ID : A_AC3
Duration : 2 h 33 min
Bit rate mode : Constant
Bit rate : 448 kb/s
Channel(s) : 6 channels
Channel layout : L R C LFE Ls Rs
Sampling rate : 48.0 kHz
Frame rate : 31.250 FPS (1536 SPF)
Bit depth : 16 bits
Compression mode : Lossy
Stream size : 492 MiB (4%)
Title : Dub
Language : Russian
Service kind : Complete Main
Default : Yes
Forced : No
Audio #2
ID : 3
Format : AC-3
Format/Info : Audio Coding 3
Commercial name : Dolby Digital
Codec ID : A_AC3
Duration : 2 h 33 min
Bit rate mode : Constant
Bit rate : 448 kb/s
Channel(s) : 6 channels
Channel layout : L R C LFE Ls Rs
Sampling rate : 48.0 kHz
Frame rate : 31.250 FPS (1536 SPF)
Bit depth : 16 bits
Compression mode : Lossy
Stream size : 492 MiB (4%)
Title : AVO Serbin
Language : Russian
Service kind : Complete Main
Default : No
Forced : No
Audio #3
ID : 4
Format : E-AC-3
Format/Info : Enhanced AC-3
Commercial name : Dolby Digital Plus
Codec ID : A_EAC3
Duration : 2 h 33 min
Bit rate mode : Constant
Bit rate : 640 kb/s
Channel(s) : 6 channels
Channel layout : L R C LFE Ls Rs
Sampling rate : 48.0 kHz
Frame rate : 31.250 FPS (1536 SPF)
Compression mode : Lossy
Stream size : 703 MiB (5%)
Language : English
Service kind : Complete Main
Default : No
Forced : No
Text #1
ID : 5
Format : UTF-8
Codec ID : S_TEXT/UTF8
Codec ID/Info : UTF-8 Plain Text
Duration : 2 h 30 min
Bit rate : 0 b/s
Count of elements : 19
Stream size : 847 Bytes (0%)
Title : forced
Language : Russian
Default : Yes
Forced : No
Text #2
ID : 6
Format : UTF-8
Codec ID : S_TEXT/UTF8
Codec ID/Info : UTF-8 Plain Text
Duration : 2 h 33 min
Bit rate : 67 b/s
Count of elements : 1481
Stream size : 75.9 KiB (0%)
Title : full
Language : Russian
Default : No
Forced : No
Text #3
ID : 7
Format : UTF-8
Codec ID : S_TEXT/UTF8
Codec ID/Info : UTF-8 Plain Text
Duration : 2 h 31 min
Bit rate : 50 b/s
Count of elements : 1948
Stream size : 56.2 KiB (0%)
Language : English
Default : No
Forced : No

Скриншоты

[cybertorrent.ru].t8621.torrent 
Торрент: Зарегистрирован [ 2019-10-26 16:28 ] · 7E54ABF5AC9FABF1CF65CED2094BE40ACAEE2AC2

Скачать .torrent

Скачать

32 KB

Статус: проверено
Скачан: 0 раз
Размер: 12,5 GB
terms.php
Профиль [ЛС]
Показать сообщения:    

Текущее время: 23-Ноя 01:20

Часовой пояс: UTC ± 0



Вы не можете начинать темы
Вы не можете отвечать на сообщения
Вы не можете редактировать свои сообщения
Вы не можете удалять свои сообщения
Вы не можете голосовать в опросах
Вы не можете прикреплять файлы к сообщениям
Вы можете скачивать файлы