Статистика раздачи
Размер:  701 MB   |    Зарегистрирован:  26 дней   |    Скачан:  0 раз

Полного источника не было: Никогда

 
     
 
 

Floyd ®

Пол:
Мужской
Стаж:
7 месяцев 25 дней
Сообщений:
1521

Дзенбоксинг
Жанр: комедия
Год выпуска: 1998
Продолжительность: 00:55:40
Режиссёр: Глеб Алейников, Александр Дулерайн
В ролях: Дмитрий Певцов
Ирина Апексимова
Ольга Дроздова
Игорь Кечаев
Елена Коренева
Игорь Лысов
Тамара Сагайдак
Андрей Сильвестров
Николай Соловов
Описание: Как победить воина, который еще не родился, если ты уже умер? Ультрамодный стиль, парадоксальный язык, параномальные явления, Древний Китай, черный юмор, Интернет, любовь, бои кикбоксеров — реальная магия ДЗЕНБОКСИНГА.
Качество видео: VHSRip
Формат видео: AVI
Видео: 512x384 (1.33:1), 25 fps, XviD build 73 ~1558 kbps avg, 0.32 bit/pixel
Аудио: 48 kHz, AC3 Dolby Digital, 2/0 (L,R) ch, ~192 kbps

MediaInfo

Дзенбоксинг [by Tuts77].avi
Format : AVI
Format/Info : Audio Video Interleave
File size : 701 MiB
Duration : 55 min 39 s
Overall bit rate : 1 760 kb/s
Movie name : Дзенбоксинг [by Tuts77]
Director : by Tuts77
Writing application : VirtualDubMod 1.5.10.3 | www.virtualdub-fr.org || (build 2550/release)
Copyright : Edich2
Comment : RuTracker.org
Video
ID : 0
Format : MPEG-4 Visual
Format profile : Advanced Simple@L5
Format settings : BVOP1 / Custom Matrix
Format settings, BVOP : 1
Format settings, QPel : No
Format settings, GMC : No warppoints
Format settings, Matrix : Custom
Codec ID : XVID
Codec ID/Hint : XviD
Duration : 55 min 39 s
Bit rate : 1 559 kb/s
Width : 512 pixels
Height : 384 pixels
Display aspect ratio : 4:3
Frame rate : 25.000 FPS
Color space : YUV
Chroma subsampling : 4:2:0
Bit depth : 8 bits
Scan type : Progressive
Compression mode : Lossy
Bits/(Pixel*Frame) : 0.317
Stream size : 621 MiB (89%)
Writing library : XviD 73
Audio
ID : 1
Format : AC-3
Format/Info : Audio Coding 3
Codec ID : 2000
Duration : 55 min 39 s
Bit rate mode : Constant
Bit rate : 192 kb/s
Channel(s) : 2 channels
Channel positions : Front: L R
Sampling rate : 48.0 kHz
Frame rate : 31.250 FPS (1536 SPF)
Bit depth : 16 bits
Compression mode : Lossy
Stream size : 76.4 MiB (11%)
Alignment : Split accross interleaves
Interleave, duration : 40 ms (1.00 video frame)
Interleave, preload duratio : 500 ms
Service kind : Complete Main

Скриншоты


[cybertorrent.ru].t8729.torrent 
Торрент: Зарегистрирован [ 2019-10-27 15:38 ] · 6280D7063C8A98A33F4BE78A94AE2E203FDCDAC7

Скачать .torrent

Скачать

14 KB

Статус: проверено
Скачан: 0 раз
Размер: 701 MB
terms.php
Профиль [ЛС]
Показать сообщения:    

Текущее время: 23-Ноя 01:19

Часовой пояс: UTC ± 0



Вы не можете начинать темы
Вы не можете отвечать на сообщения
Вы не можете редактировать свои сообщения
Вы не можете удалять свои сообщения
Вы не можете голосовать в опросах
Вы не можете прикреплять файлы к сообщениям
Вы можете скачивать файлы