Статистика раздачи
Размер:  1,41 GB   |    Зарегистрирован:  26 дней   |    Скачан:  0 раз

Полного источника не было: Никогда

 
     
 
 

Floyd ®

Пол:
Мужской
Стаж:
7 месяцев 25 дней
Сообщений:
1521

Любовь и 45 калибр / Любовь и кольт 45 калибра / Love and a .45
«In The End There Are Only Two Things That Matter...»
Страна: США
Жанр: Триллер
Год выпуска: 1994
Продолжительность: 01:41:37
Перевод: Авторский (одноголосый закадровый) Леонид Володарский
Субтитры: нет
Оригинальная аудиодорожка: английский
Режиссер: Си-Эм Токингтон / C.M. Talkington
В ролях: Джил Беллоуз, Рене Зеллвегер, Рори Кокрейн, Джеффри Комбс, Джейс Александр, Энн
Уэджуорт, Питер Фонда, Тэмми Ле Бланк, Уайли Уиггинс, Джек Нэнс
Описание: Уотти Уоттс и его подружка Старлин — обыкновенные воры. Они грабят с
незаряженным оружием и никогда никого не убивают. Приятель-наркоман Билли ослушался Уотти
и застрелил кассиршу, видевшую его лицо. После этого кровь и насилие преследуют молодую
пару…
Качество видео: WEB-DLRip
Формат видео: AVI
Видео: XviD build 73, 704x400 (1.76:1), 23.976 fps, 1779 kbps avg, 0.26 bit/pixel
Аудио: AC3 Dolby Digital, 48000Hz, 2/0 (L,R) ch (stereo), 192 kbps avg

MediaInfo

Любовь и кольт 45 калибра - Love and a .45 (by ale_X2008).avi
Format : AVI
Format/Info : Audio Video Interleave
File size : 1.41 GiB
Duration : 1 h 41 min
Overall bit rate : 1 981 kb/s
Movie name : Любовь и кольт 45 калибра - Love and a .45 (by ale_X2008)
Director : by ale_X2008
Writing application : VirtualDubMod 1.5.10.2 (build 2540/release)
Copyright : Edich2
Comment : Rutracker.org
Video
ID : 0
Format : MPEG-4 Visual
Format profile : Advanced Simple@L5
Format settings : BVOP1 / Custom Matrix
Format settings, BVOP : 1
Format settings, QPel : No
Format settings, GMC : No warppoints
Format settings, Matrix : Custom
Codec ID : XVID
Codec ID/Hint : XviD
Duration : 1 h 41 min
Bit rate : 1 780 kb/s
Width : 704 pixels
Height : 400 pixels
Display aspect ratio : 16:9
Frame rate : 23.976 (24000/1001) FPS
Color space : YUV
Chroma subsampling : 4:2:0
Bit depth : 8 bits
Scan type : Progressive
Compression mode : Lossy
Bits/(Pixel*Frame) : 0.264
Stream size : 1.26 GiB (90%)
Writing library : XviD 73
Audio
ID : 1
Format : AC-3
Format/Info : Audio Coding 3
Codec ID : 2000
Duration : 1 h 41 min
Bit rate mode : Constant
Bit rate : 192 kb/s
Channel(s) : 2 channels
Channel positions : Front: L R
Sampling rate : 48.0 kHz
Frame rate : 31.250 FPS (1536 SPF)
Bit depth : 16 bits
Compression mode : Lossy
Stream size : 140 MiB (10%)
Alignment : Split accross interleaves
Interleave, duration : 42 ms (1.00 video frame)
Interleave, preload duratio : 500 ms
Service kind : Complete Main

Скриншоты



[cybertorrent.ru].t8743.torrent 
Торрент: Зарегистрирован [ 2019-10-27 17:47 ] · F3A42A7F3EAB62843370E1D7CB80BFCCA1536F69

Скачать .torrent

Скачать

15 KB

Статус: проверено
Скачан: 0 раз
Размер: 1,41 GB
terms.php
Профиль [ЛС]

RodrigoEcf

Пол:
Мужской
Стаж:
1 день 11 часов
Сообщений:
1

Откуда: Sri Lanka

http://erectionpills365.com - dysfunction <a href=http://erectionpills365.com/#>erectile disfunction</a>

Создавать темы 21-Ноя-2019 14:57 (спустя 24 дня)

[Цитировать]

Профиль [ЛС]
Показать сообщения:    

Текущее время: 23-Ноя 02:02

Часовой пояс: UTC ± 0



Вы не можете начинать темы
Вы не можете отвечать на сообщения
Вы не можете редактировать свои сообщения
Вы не можете удалять свои сообщения
Вы не можете голосовать в опросах
Вы не можете прикреплять файлы к сообщениям
Вы можете скачивать файлы