Статистика раздачи
Размер:  1,46 GB   |    Зарегистрирован:  26 дней   |    Скачан:  0 раз

Полного источника не было: Никогда

 
     
 
 

Floyd ®

Пол:
Мужской
Стаж:
7 месяцев 25 дней
Сообщений:
1521

Восставший из ада / Вызывающий ад / Посланцы ада / Поднявшийся из ада / Hellraiser
«Он уничтожит вашу душу»
Страна: Великобритания
Жанр: Ужасы
Год выпуска: 1987
Продолжительность: 01:33:22
Перевод: Авторский (одноголосый закадровый) Андрей Дольский
Перевод 2: Авторский (одноголосый закадровый) Виктор Махонько
Перевод 3: Одноголосый закадровый (Американ Видео)
Субтитры: нет
Режиссер: Клайв Баркер / Clive Barker
В ролях: Шон Чэпмен — Фрэнк Коттон (человек)
Оливер Смит — Фрэнк Коттон (монстр)
Эндрю Робинсон — Ларри Коттон (в книге — Рори Коттон)
Клэр Хиггинс (англ.) — Джулия Коттон
Эшли Лоуренс — Кёрсти Коттон, дочь Ларри Коттона (в книге — она не дочь Рори Коттона, а подруга его и Джулии)
Даг Брэдли — Пинхед (гвоздеголовый сенобит)
Николас Винс — Чейтер (стучащий зубами сенобит)
Саймон Бэмфорд — Баттербол (толстый сенобит)
Грэйс Кирби — Фимейл (женщина-сенобит)
Описание: Аннотация от alenavova
Страшная история о дьявольском "кубике Рубика"- странной головоломке, которая, если собрать ее правильно, может открыть врата в ад. Что, кстати, и делает герой фильма по имени Фрэнк. Побыв в аду некоторое время, Фрэнк решает вернуться довольно хитроумным способом, и это у него почти получилось, но... Оказывается, не так-то просто обмануть Кенобитов - грозных и ужасных демонов-сторожей потустороннего мира. Этот фильм явился режиссерским дебютом Клайва Баркера, молодого, но уже признанного на Западе мастера литературы ужасов. "Восставший из ада" вполне заслуживает определенного зрительского интереса, особенно для любителей данного жанра. Картина была удостоена одного из призов жюри Международного фестиваля фантастических фильмов в Авориазе (Франция).
Качество видео: BDRip [Hell Raiser.BluRay 28.59 GB]
Формат видео: AVI
Видео: 704x384 (1.83:1), 23.976 fps, XviD build 73 ~1637 kbps avg, 0.25 bit/pixel
Аудио: AC3 Dolby Digital, 48000Hz 2/0 (L,R) ch (stereo), 192 kbps avg (AVO)
Аудио 2: AC3 Dolby Digital, 48000Hz 2/0 (L,R) ch (mono), 192 kbps avg (AVO)
Аудио 3: AC3 Dolby Digital, 48000Hz 2/0 (L,R) ch (mono), 192 kbps avg (VO)

MediaInfo

Восставший из ада - Hellraiser (by ale_x2008).avi
Format : AVI
Format/Info : Audio Video Interleave
File size : 1.46 GiB
Duration : 1 h 33 min
Overall bit rate : 2 234 kb/s
Movie name : Восставший из ада - Hellraiser (by ale_x2008)
Director : by ale_X2008
Writing application : VirtualDubMod 1.5.10.2 (build 2540/release)
Copyright : Edich2
Comment : RuTracker.org
Video
ID : 0
Format : MPEG-4 Visual
Format profile : Advanced Simple@L5
Format settings : BVOP1 / Custom Matrix
Format settings, BVOP : 1
Format settings, QPel : No
Format settings, GMC : No warppoints
Format settings, Matrix : Custom
Codec ID : XVID
Codec ID/Hint : XviD
Duration : 1 h 33 min
Bit rate : 1 639 kb/s
Width : 704 pixels
Height : 384 pixels
Display aspect ratio : 1.85:1
Frame rate : 23.976 (24000/1001) FPS
Color space : YUV
Chroma subsampling : 4:2:0
Bit depth : 8 bits
Scan type : Progressive
Compression mode : Lossy
Bits/(Pixel*Frame) : 0.253
Stream size : 1.07 GiB (73%)
Writing library : XviD 73
Audio #1
ID : 1
Format : AC-3
Format/Info : Audio Coding 3
Codec ID : 2000
Duration : 1 h 33 min
Bit rate mode : Constant
Bit rate : 192 kb/s
Channel(s) : 2 channels
Channel positions : Front: L R
Sampling rate : 48.0 kHz
Frame rate : 31.250 FPS (1536 SPF)
Bit depth : 16 bits
Compression mode : Lossy
Stream size : 128 MiB (9%)
Alignment : Split accross interleaves
Interleave, duration : 42 ms (1.00 video frame)
Interleave, preload duratio : 500 ms
Service kind : Complete Main
Audio #2
ID : 2
Format : AC-3
Format/Info : Audio Coding 3
Codec ID : 2000
Duration : 1 h 33 min
Bit rate mode : Constant
Bit rate : 192 kb/s
Channel(s) : 2 channels
Channel positions : Front: L R
Sampling rate : 48.0 kHz
Frame rate : 31.250 FPS (1536 SPF)
Bit depth : 16 bits
Compression mode : Lossy
Stream size : 128 MiB (9%)
Alignment : Split accross interleaves
Interleave, duration : 42 ms (1.00 video frame)
Interleave, preload duratio : 500 ms
Service kind : Complete Main
Audio #3
ID : 3
Format : AC-3
Format/Info : Audio Coding 3
Codec ID : 2000
Duration : 1 h 33 min
Bit rate mode : Constant
Bit rate : 192 kb/s
Channel(s) : 2 channels
Channel positions : Front: L R
Sampling rate : 48.0 kHz
Frame rate : 31.250 FPS (1536 SPF)
Bit depth : 16 bits
Compression mode : Lossy
Stream size : 128 MiB (9%)
Alignment : Split accross interleaves
Interleave, duration : 42 ms (1.00 video frame)
Interleave, preload duratio : 500 ms
Service kind : Complete Main

Скриншоты



[cybertorrent.ru].t8746.torrent 
Торрент: Зарегистрирован [ 2019-10-27 17:52 ] · 9134CDDE4DE3C07E0E0E5FBAF20E59116C57FC8D

Скачать .torrent

Скачать

15 KB

Статус: проверено
Скачан: 0 раз
Размер: 1,46 GB
terms.php
Профиль [ЛС]
Показать сообщения:    

Текущее время: 23-Ноя 01:26

Часовой пояс: UTC ± 0



Вы не можете начинать темы
Вы не можете отвечать на сообщения
Вы не можете редактировать свои сообщения
Вы не можете удалять свои сообщения
Вы не можете голосовать в опросах
Вы не можете прикреплять файлы к сообщениям
Вы можете скачивать файлы