Статистика раздачи
Размер:  4,7 GB   |    Зарегистрирован:  3 месяца 9 дней   |    Скачан:  0 раз

Полного источника не было: Никогда

 
   
 
 

Катюшка ®

Пол:
Не указан
Стаж:
3 месяца 9 дней
Сообщений:
288

Госпожа горничная / Maid in Manhattan
Год выпуска: 2002
Страна: США
Жанр: Комедия
Продолжительность: 01:45:16
Перевод: Профессиональный (полное дублирование) R5
Субтитры: английские
Оригинальная аудиодорожка: английская
Режиссер: Вейн Ванг / Wayne Wang
В ролях: Дженнифер Лопес, Франсис Конрой, Наташа Ричардсон, Стэнли Туччи, Тайлер Гарсия Поуси, Боб Хоскинс, Ральф Фиеннес
Описание: Как мало порою нужно, чтобы грубая реальность вдруг в одночасье прекратилась в сказку наяву! Убирая номер богатой дамы, молодая горничная Мариса поддается соблазну померить ее роскошные наряды, и надо же такому случиться: в этот самый момент ее застает виднейший холостяк страны Кристофер Маршалл, наследник могущественной политической династии. Это судьба! Всего один взгляд - и он влюбляется в ту прекрасную женщину, что предстает перед ним, а героине, сердце которой тоже начинает неровно биться в присутствии этого красавца, не хватает духу признаться, что она лишь служанка.
Так начинается самая удивительная история любви, которую знал старый отель, но что будет, когда правда раскроется? Переживет ли сказка столкновение с реальной жизнью?...
Тип релиза: BDRip 720p
Контейнер: MKV
Видео: AVC, 1280x528, 23.976 fps, ~5304 kbps
Аудио1: Русский, AC3, 5.1 - 448 kb/s, 48.0 kHz
Аудио1: Английский, AC3, 5.1 - 640 kb/s, 48.0 kHz
Формат субтитров: softsub (SRT)

MediaInfo

General
Unique ID : 188509068008708394752129784439172055554 (0x8DD186A081EBC34BAFC8007A5E394202)
Complete name : Z:\Gospoga.Gornichnaya.BDRip.720p.x264.MIF.mkv
Format : Matroska
Format version : Version 1
File size : 4.70 GiB
Duration : 1 h 45 min
Overall bit rate : 6 394 kb/s
Encoded date : UTC 2008-09-16 16:47:33
Writing application : mkvmerge v2.2.0 ('Turn It On Again') built on Mar 4 2008 12:58:26
Writing library : libebml v0.7.7 + libmatroska v0.8.1
Video
ID : 1
Format : AVC
Format/Info : Advanced Video Codec
Format profile : High@L3.1
Format settings : CABAC / 3 Ref Frames
Format settings, CABAC : Yes
Format settings, RefFrames : 3 frames
Codec ID : V_MPEG4/ISO/AVC
Duration : 1 h 45 min
Bit rate : 5 304 kb/s
Width : 1 280 pixels
Height : 528 pixels
Display aspect ratio : 2.40:1
Frame rate mode : Constant
Frame rate : 23.976 FPS
Color space : YUV
Chroma subsampling : 4:2:0
Bit depth : 8 bits
Scan type : Progressive
Bits/(Pixel*Frame) : 0.327
Stream size : 3.81 GiB (81%)
Title : Video
Writing library : x264 core 61 r965M 3d2983d
Encoding settings : cabac=1 / ref=3 / deblock=1:-2:-1 / analyse=0x3:0x113 / me=umh / subme=6 / psy_rd=1.0:1.0 / brdo=0 / mixed_ref=0 / me_range=12 / chroma_me=1 / trellis=1 / 8x8dct=1 / cqm=0 / deadzone=21,11 / chroma_qp_offset=-4 / threads=6 / nr=0 / decimate=1 / mbaff=0 / bframes=3 / b_pyramid=1 / b_adapt=1 / b_bias=0 / direct=3 / wpredb=0 / bime=0 / keyint=250 / keyint_min=25 / scenecut=40(pre) / rc=2pass / bitrate=5304 / ratetol=1.0 / qcomp=1.00 / qpmin=10 / qpmax=51 / qpstep=4 / cplxblur=20.0 / qblur=0.5 / ip_ratio=1.40 / pb_ratio=1.30 / aq=2:1.00
Default : Yes
Forced : No
Audio #1
ID : 2
Format : AC-3
Format/Info : Audio Coding 3
Codec ID : A_AC3
Duration : 1 h 45 min
Bit rate mode : Constant
Bit rate : 448 kb/s
Channel(s) : 6 channels
Channel positions : Front: L C R, Side: L R, LFE
Sampling rate : 48.0 kHz
Frame rate : 31.250 FPS (1536 SPF)
Bit depth : 16 bits
Compression mode : Lossy
Stream size : 337 MiB (7%)
Title : DD 5.1 by MIF
Language : Russian
Service kind : Complete Main
Default : Yes
Forced : No
Audio #2
ID : 3
Format : AC-3
Format/Info : Audio Coding 3
Codec ID : A_AC3
Duration : 1 h 45 min
Bit rate mode : Constant
Bit rate : 640 kb/s
Channel(s) : 6 channels
Channel positions : Front: L C R, Side: L R, LFE
Sampling rate : 48.0 kHz
Frame rate : 31.250 FPS (1536 SPF)
Bit depth : 16 bits
Compression mode : Lossy
Stream size : 482 MiB (10%)
Title : DD 5.1
Language : English
Service kind : Complete Main
Default : No
Forced : No
Text
ID : 4
Format : UTF-8
Codec ID : S_TEXT/UTF8
Codec ID/Info : UTF-8 Plain Text
Language : English
Default : Yes
Forced : No

Скриншоты

[cybertorrent.ru].t876.torrent 
Торрент: Зарегистрирован [ 2018-02-15 22:25 ] · B9B4384F338A134FA63989D42DE5C1E65B6C5BCA

Скачать .torrent

Скачать

24 KB

Статус: проверено
Скачан: 0 раз
Размер: 4,7 GB
Профиль [ЛС]
Показать сообщения:    

Текущее время: 25-Май 09:04

Часовой пояс: UTC ± 0



Вы не можете начинать темы
Вы не можете отвечать на сообщения
Вы не можете редактировать свои сообщения
Вы не можете удалять свои сообщения
Вы не можете голосовать в опросах
Вы не можете прикреплять файлы к сообщениям
Вы можете скачивать файлы