Статистика раздачи
Размер:  2,65 GB   |    Зарегистрирован:  26 дней   |    Скачан:  0 раз

Полного источника не было: Никогда

 
     
 
 

Floyd ®

Пол:
Мужской
Стаж:
7 месяцев 25 дней
Сообщений:
1521

Москва - Кассиопея
Жанр: фантастика
Год выпуска: 1974
Продолжительность: 01:19:44
Режиссер: Ричард Викторов
В ролях: Иннокентий Смоктуновский, Василий Меркурьев, Лев Дуров, Юрий Медведев, Петр Меркурьев, Володя Басов, Оля Битюкова, Надя Овчарова, Ира Попова, Миша Ершов, Саша Григорьев, Володя Савин, Анатолий Адоскин, Наталья Фатеева, Николай Фигуровский, Артем Карапетян, Валентина Куценко, Сергей Радченко, Раиса Рязанова, Надежда Семенцова, Михаил Янушкевич, Аня и Коля Викторовы, Наташа Стриженова
Описание: Калужский школьник Виктор Середа предлагает проект космического корабля с двигателями, основанными на принципиально новой технологии. Проект отмечен учеными и конструкторами, принят в разработку, и через год "ЗАРЯ" ("Звездолет Аннигиляционный Релятивистский Ядерный") начинает полет к Шедар - звезде Альфа созвездия Кассиопеи. Цель экспедиции выбрана не случайно. Земные обсерватории приняли сигналы, явно имеющие искусственное происхождение, с одной из планет системы Шедар. Поскольку, даже двигаясь с субсветовой скоростью, "ЗАРЯ" должна находиться в пути до Кассиопеи двадцать семь лет по локальному времени корабля, решено сформировать экипаж из 14-летних подростков. Руководителем экспедиции и капитаном корабля становится Виктор Середа. Экипаж он подбирает из своих друзей. По расчетам, астронавты достигли бы цели к сорока годам, в расцвете жизненных сил. Однако, непредвиденные обстоятельства нарушают все планы...
Доп. информация:
Сценарий: Исай Кузнецов, Авенир Зак
Оператор: Андрей Кириллов
Художник: Константин Загорский
Композитор: Владимир Чернышев
Стихи: Роберт Рождественский
Вокал: Геннадий Белов (песня "Этот большой мир")
Награды:

скрытый текст

премия за лучший фильм для детей на ВКФ в Баку (1974); премия "Платеро" на МКФ для детей и юношества в Хихоне (1975); серебряный приз МКФ в Москве в разделе детских фильмов (1975); специальный приз жюри МКФ научно-фантастических фильмов в Триесте (1975); диплом Международного технического конкурса фильмов в рамках конгресса УНИАТЕК в Москве (1976); Государственная премия РСФСР имени братьев Васильевых (1977)
Качество видео: DVDRip
Формат видео: AVI
Видео: 720x320 (2.25:1), 25 fps, XviD 1.2.1, 1985 kbps avg, 0.34 bit/pixel
Аудио: 48 kHz, AC3 Dolby Digital, 3/2 (L,C,R,l,r) + LFE ch, 384.00 kbps avg

MI

Полное имя : Moskva-Kassiopeja.avi
Формат : AVI
Формат/Информация : Audio Video Interleave
Размер файла : 1,32 Гбайт
Продолжительность : 1 ч. 19 м.
Общий поток : 2379 Кбит/сек
Программа кодирования : VirtualDubMod 1.5.10.3 (build 2550/release)
Библиотека кодирования : VirtualDubMod build 2550/release
Видео
Идентификатор : 0
Формат : MPEG-4 Visual
Профиль формата : Advanced Simple@L5
Параметр BVOP формата : 2
Параметр QPel формата : Нет
Параметр GMC формата : Без точки перехода
Параметр матрицы формата : Default (MPEG)
Режим смешивания : Сжатый битовый поток
Идентификатор кодека : DIVX
Идентификатор кодека/Информация : Project Mayo
Идентификатор кодека/Подсказка : DivX 4
Продолжительность : 1 ч. 19 м.
Битрейт : 1985 Кбит/сек
Ширина : 720 пикселей
Высота : 320 пикселей
Соотношение сторон : 2,25:1
Частота кадров : 25,000 кадров/сек
Цветовое пространство : YUV
Субдискретизация насыщенности : 4:2:0
Битовая глубина : 8 бит
Тип развёртки : Прогрессивная
Метод сжатия : С потерями
Бит/(Пиксели*Кадры) : 0.345
Размер потока : 1,11 Гбайт (83%)
Библиотека кодирования : XviD 1.2.1 (UTC 2008-12-04)
Аудио
Идентификатор : 1
Формат : AC-3
Формат/Информация : Audio Coding 3
Расширение режима : CM (complete main)
Идентификатор кодека : 2000
Продолжительность : 1 ч. 19 м.
Вид битрейта : Постоянный
Битрейт : 384 Кбит/сек
Каналы : 6 каналов
Расположение каналов : Front: L C R, Side: L R, LFE
Частота : 48,0 КГц
Битовая глубина : 16 бит
Метод сжатия : С потерями
Размер потока : 219 Мбайт (16%)
Выравнивание : Разделение по промежуткам
Продолжительность промежутка : 40 мс. (1,00 видеокадр)
Время предзагрузки промежутка : 500 мс.

Скриншоты

Отроки во Вселенной
Жанр: фантастика
Год выпуска: 1974
Продолжительность: 01:19:34
Режиссер: Ричард Викторов
В ролях: Миша Ершов, Саша Григорьев, Володя Савин, Володя Басов, Оля Битюкова, Надя Овчарова, Ира Попова, Дима Ледогоров, Иннокентий Смоктуновский, Игорь Ледогоров, Лев Дуров, Анатолий Адоскин, Николай Абрашин, Александр Леньков, Юрий Медведев, Николай Погодин, Раиса Рязанова, Надежда Семенцова, Ольга Сошникова, Александр Вигдоров, Михаил Янушкевич, Александр Зимин
Описание: Звездолет "ЗАРЯ" достигает цели - звезды Альфы Кассиопеи, называемой Шедар. Уже известно, что на второй планете этой звездной системы произошла катастрофа, угрожающая населяющим ее разумным существам. Экипаж "ЗАРИ" должен попытаться помочь братьям по разуму. Первый же десант на планету, названную Варианой, встречается с представителями местной цивилизации. К удивлению землян, те утверждают, что не посылали никаких сигналов о помощи. Между тем, юные автронавты, оставшиеся на орбите, вступают в контакт с обитателями обсерватории, которая последние 250 лет вращается вокруг планеты. Инопланетяне, пришедшие на борт земного корабля, рассказывают о том, что на Вариане в данный момент нет ни одного живого существа...
Доп. информация:
Сценарий: Исай Кузнецов, Авенир Зак
Оператор: Андрей Кириллов
Художник: Константин Загорский
Композитор: Владимир Чернышев
Стихи: Роберт Рождественский
Вокал: ансамбль солистов хора Госкино СССР
Награды: премия за лучший фильм для детей и юношества на ВКФ в Кишиневе (1975); главный приз МКФ в Панаме (1976); специальная премия жюри "Серебряный астероид" МКФ научно-фантастических фильмов в Триесте (1976)
Качество видео: DVDRip
Формат видео: AVI
Видео: 704x368 (1.91:1), 25 fps, XviD 1.2.1, 1985 kbps avg, 0.31 bit/pixel
Аудио: 48 kHz, AC3 Dolby Digital, 3/2 (L,C,R,l,r) + LFE ch, 384.00 kbps avg

MI

Полное имя : Otroki vo Vselennoj.avi
Формат : AVI
Формат/Информация : Audio Video Interleave
Размер файла : 1,32 Гбайт
Продолжительность : 1 ч. 19 м.
Общий поток : 2379 Кбит/сек
Программа кодирования : VirtualDubMod 1.5.10.3 (build 2550/release)
Библиотека кодирования : VirtualDubMod build 2550/release
Видео
Идентификатор : 0
Формат : MPEG-4 Visual
Профиль формата : Advanced Simple@L5
Параметр BVOP формата : 2
Параметр QPel формата : Нет
Параметр GMC формата : Без точки перехода
Параметр матрицы формата : Default (MPEG)
Режим смешивания : Сжатый битовый поток
Идентификатор кодека : DIVX
Идентификатор кодека/Информация : Project Mayo
Идентификатор кодека/Подсказка : DivX 4
Продолжительность : 1 ч. 19 м.
Битрейт : 1985 Кбит/сек
Ширина : 704 пикселя
Высота : 368 пикселей
Соотношение сторон : 1,913
Частота кадров : 25,000 кадров/сек
Цветовое пространство : YUV
Субдискретизация насыщенности : 4:2:0
Битовая глубина : 8 бит
Тип развёртки : Прогрессивная
Метод сжатия : С потерями
Бит/(Пиксели*Кадры) : 0.306
Размер потока : 1,10 Гбайт (83%)
Библиотека кодирования : XviD 1.2.1 (UTC 2008-12-04)
Аудио
Идентификатор : 1
Формат : AC-3
Формат/Информация : Audio Coding 3
Расширение режима : CM (complete main)
Идентификатор кодека : 2000
Продолжительность : 1 ч. 19 м.
Вид битрейта : Постоянный
Битрейт : 384 Кбит/сек
Каналы : 6 каналов
Расположение каналов : Front: L C R, Side: L R, LFE
Частота : 48,0 КГц
Битовая глубина : 16 бит
Метод сжатия : С потерями
Размер потока : 219 Мбайт (16%)
Выравнивание : Разделение по промежуткам
Продолжительность промежутка : 40 мс. (1,00 видеокадр)
Время предзагрузки промежутка : 500 мс.

Скриншоты

[cybertorrent.ru].t8782.torrent 
Торрент: Зарегистрирован [ 2019-10-27 18:42 ] · 55931B54DA580961C06F96C973A0B4D64D03FF9F

Скачать .torrent

Скачать

14 KB

Статус: проверено
Скачан: 0 раз
Размер: 2,65 GB
terms.php
Профиль [ЛС]
Показать сообщения:    

Текущее время: 23-Ноя 02:30

Часовой пояс: UTC ± 0



Вы не можете начинать темы
Вы не можете отвечать на сообщения
Вы не можете редактировать свои сообщения
Вы не можете удалять свои сообщения
Вы не можете голосовать в опросах
Вы не можете прикреплять файлы к сообщениям
Вы можете скачивать файлы