Статистика раздачи
Размер:  746 MB   |    Зарегистрирован:  16 дней   |    Скачан:  0 раз

Полного источника не было: Никогда

 
     
 
 

Floyd ®

Пол:
Мужской
Стаж:
7 месяцев 25 дней
Сообщений:
1521

-Ты умеешь хранить секреты? / Can You Keep a Secret?-«Возможна ли правда между мужчиной и женщиной?»- -Страна: США
Жанр: мелодрама, комедия
Год выпуска: 2019
Продолжительность: 01:34:36-Перевод: Профессиональный (дублированный) iTunes
Субтитры: нет
Оригинальная аудиодорожка: нет-Режиссер: Элиз Дюран / Elise Duran-В ролях: Александра Даддарио, Тайлер Хэклин, Кимико Гленн, Лаверн Кокс, Сунита Мани, Джуда Фридландер, Сэм Асгари, Кейт Кастонгуэй, Эшлин Алесси, Бобби Тисдэйл-Описание: Эмма с треском провалила совещание и возвращается из командировки самолётом. Настроение - хуже некуда, вдобавок девушка боится летать, поэтому хорошенько принимает на грудь перед посадкой. Сочувствующая стюардесса предлагает ей свободное место в первом классе, где разносят шампанское, поэтому при первой же турбулентности от страха Эмма начинает вываливать все свои секреты сидящему рядом мужчине. Она рассказывает ему всё - от нюансов личной жизни до офисных взаимоотношений. И каково же было удивление девушки, когда на следующий день выяснилось, что тот самый сосед по самолёту - её босс и основатель компании - пришёл в их офис проверить работу отделения.-Качество видео: WEB-DLRip-AVC /
Формат видео: MKV-Видео: MPEG-4 AVC, 742x400 (1.85:1), 23.976 fps, ~938 kbps avg, 0.128 bit/pixel
Аудио: 48 kHz, AC3 Dolby Digital, 2/0 (L,R) ch, ~192 kbps avg-

MediaInfo

Код:Complete name : D:\Раздача\Ты умеешь хранить секреты (2019) WEB-DLRip-AVC_ivanes.mkv
Format : Matroska
Format version : Version 2
File size : 746 MiB
Duration : 1 h 34 min
Overall bit rate : 1 101 kb/s
Movie name : Ты умеешь хранить секреты? (2019) WEB-DLRip-AVC_ivanes
Encoded date : UTC 2019-11-05 20:42:25
Writing application : mkvmerge v4.4.0 ('Die Wiederkehr') сборка от Jan 3 2011 21:40:45
Writing library : libebml v1.0.0 + libmatroska v1.0.0
Cover : Yes
Attachments : cover.jpg
Video
ID : 1
Format : AVC
Format/Info : Advanced Video Codec
Format profile : High@L4.1
Format settings : CABAC / 10 Ref Frames
Format settings, CABAC : Yes
Format settings, Reference : 10 frames
Codec ID : V_MPEG4/ISO/AVC
Duration : 1 h 34 min
Bit rate : 909 kb/s
Width : 742 pixels
Height : 400 pixels
Display aspect ratio : 1.85:1
Frame rate mode : Constant
Frame rate : 23.976 (24000/1001) FPS
Color space : YUV
Chroma subsampling : 4:2:0
Bit depth : 8 bits
Scan type : Progressive
Bits/(Pixel*Frame) : 0.128
Stream size : 601 MiB (81%)
Title : Rip by ivanes
Writing library : x264 core 158 r2984+49 6932f4a t_mod_New [0-bit@all X86]
Encoding settings : cabac=1 / ref=10 / deblock=1:-3:-2 / analyse=0x3:0x113 / me=umh / subme=10 / psy=1 / fade_compensate=0.00 / psy_rd=1.00:0.00 / mixed_ref=1 / me_range=32 / chroma_me=1 / trellis=2 / 8x8dct=1 / cqm=0 / deadzone=21,11 / fast_pskip=0 / chroma_qp_offset=-2 / threads=12 / lookahead_threads=3 / sliced_threads=0 / nr=0 / decimate=1 / interlaced=0 / bluray_compat=0 / constrained_intra=0 / fgo=0 / bframes=12 / b_pyramid=2 / b_adapt=2 / b_bias=0 / direct=1 / weightb=1 / open_gop=0 / weightp=2 / keyint=240 / keyint_min=23 / scenecut=40 / intra_refresh=0 / rc_lookahead=60 / rc=2pass / mbtree=0 / bitrate=909 / ratetol=1.0 / qcomp=0.60 / qpmin=0:0:0 / qpmax=69:69:69 / qpstep=4 / cplxblur=20.0 / qblur=0.5 / vbv_maxrate=50000 / vbv_bufsize=62500 / nal_hrd=none / filler=0 / ip_ratio=1.40 / pb_ratio=1.30 / aq=1:1.00 / aq-sensitivity=10.00 / aq-factor=1.00:1.00:1.00 / aq2=0 / aq3=0
Default : Yes
Forced : No
Statistics Tags Issue : mkvmerge v29.0.0 ('Like It Or Not') 64-bit 2019-11-05 20:37:10 / mkvmerge v4.4.0 ('Die Wiederkehr') сборка от Jan 3 2011 21:40:45 2019-11-05 20:42:25
FromStats_BitRate : 907950
FromStats_Duration : 01:34:36.379000000
FromStats_FrameCount : 136097
FromStats_StreamSize : 644233547
Audio
ID : 2
Format : AC-3
Format/Info : Audio Coding 3
Commercial name : Dolby Digital
Codec ID : A_AC3
Duration : 1 h 34 min
Bit rate mode : Constant
Bit rate : 192 kb/s
Channel(s) : 2 channels
Channel layout : L R
Sampling rate : 48.0 kHz
Frame rate : 31.250 FPS (1536 SPF)
Compression mode : Lossy
Stream size : 130 MiB (17%)
Title : iTunes
Language : Russian
Service kind : Complete Main
Default : Yes
Forced : No

Скриншоты

[cybertorrent.ru].t9002.torrent 
Торрент: Зарегистрирован [ 2019-11-06 09:58 ] · BC8F9F649F4B83F46790704A49E996293E5E0A36

Скачать .torrent

Скачать

15 KB

Статус: проверено
Скачан: 0 раз
Размер: 746 MB
terms.php
Профиль [ЛС]
Показать сообщения:    

Текущее время: 23-Ноя 01:20

Часовой пояс: UTC ± 0



Вы не можете начинать темы
Вы не можете отвечать на сообщения
Вы не можете редактировать свои сообщения
Вы не можете удалять свои сообщения
Вы не можете голосовать в опросах
Вы не можете прикреплять файлы к сообщениям
Вы можете скачивать файлы