Статистика раздачи
Размер:  1,46 GB   |    Зарегистрирован:  1 месяц 3 дня   |    Скачан:  0 раз

Полного источника не было: Никогда

 
     
 
 

Floyd ®

Пол:
Мужской
Стаж:
8 месяцев 14 дней
Сообщений:
1547

Короли интриги / El Cuento de las Comadrejas
Страна: Аргентина, Испания
Жанр: комедия, детектив
Год выпуска: 2019
Продолжительность: 02:08:51-Перевод: Профессиональный (многоголосый закадровый) | iTunes
Субтитры: нет
Оригинальная аудиодорожка: нет-Режиссер:
Хуан Хосе Кампанелья / Juan José Campanella-В ролях: Грасиэла Борхес, Оскар Мартинес, Луис Брандони, Маркос Мандсток, Клара Лаго, Николас Франсельа, Лус Киприота, Мару Запата, Anwar Yoma, Мануэль Мартинес Собрадо-Описание: Мара Ортис, забытая всеми кинозвезда «золотой эпохи» ведет затворнический образ жизни в старинном особняке в пригороде Буэнос-Айреса. Свой кров актриса делит с экстравагантной компанией бывших свидетелей ее увядшей славы — влюбленным в нее супругом-актером эпизода, язвительным сценаристом и режиссером-циником. Отношения этой четверки далеки от совершенства: они балансируют между обожанием и неприязнью. Однажды в поместье появляются нежданные гости — молодая пара, положившая глаз на звездное поместье. Они притворяются поклонниками Мары и убеждают актрису продать дом. Однако на пути «акул бизнеса» встают мастера дьявольских интриг. Смертельный поединок начинается…- -Качество видео: WEB-DLRip
Формат видео: AVI
Видео: 720x304 (2.37:1), 24.000 fps, XviD build 73 ~1231 kbps avg, 0.23 bit/pixel
Аудио: 48 kHz, AC3 Dolby Digital, 3/2 (L,C,R,l,r) + LFE ch, ~384 kbps-[box]Сэмпл[/box]-

MediaInfo

Код:Формат : AVI
Формат/Информация : Audio Video Interleave
Размер файла : 1,46 Гбайт
Продолжительность : 2 ч. 8 м.
Общий поток : 1625 Кбит/сек
Название фильма : Короли интриги_2019_WEB-DLRip
Программа кодирования : VirtualDubMod 1.5.10.3 | www.virtualdub-fr.org || (build 2550/release)
Авторское право : порошков
Видео
Идентификатор : 0
Формат : MPEG-4 Visual
Профиль формата : Advanced Simple@L5
Настройки формата : BVOP1 / Custom Matrix
Параметр BVOP формата : 1
Параметр QPel формата : Нет
Параметр GMC формата : Без точки перехода
Параметр матрицы формата : Выборочная
Идентификатор кодека : XVID
Идентификатор кодека/Подсказка : XviD
Продолжительность : 2 ч. 8 м.
Битрейт : 1231 Кбит/сек
Ширина : 720 пикселей
Высота : 304 пикселя
Соотношение сторон : 2,35:1
Частота кадров : 24,000 кадра/сек
Цветовое пространство : YUV
Субдискретизация насыщенности : 4:2:0
Битовая глубина : 8 бит
Тип развёртки : Прогрессивная
Метод сжатия : С потерями
Бит/(Пиксели*Кадры) : 0.234
Размер потока : 1,11 Гбайт (76%)
Библиотека кодирования : XviD 73
Аудио
Идентификатор : 1
Формат : AC-3
Формат/Информация : Audio Coding 3
Коммерческое название : Dolby Digital
Идентификатор кодека : 2000
Продолжительность : 2 ч. 8 м.
Вид битрейта : Постоянный
Битрейт : 384 Кбит/сек
Каналы : 6 каналов
ChannelLayout : L R C LFE Ls Rs
Частота : 48,0 КГц
Частота кадров : 31,250 кадров/сек (1536 SPF)
Метод сжатия : С потерями
Размер потока : 354 Мбайт (24%)
Выравнивание : Разделение по промежуткам
Продолжительность промежутка : 42 мс. (1,00 видеокадр)
Время предзагрузки промежутка : 500 мс.
ServiceKind/String : Complete Main

Скриншоты


[cybertorrent.ru].t9049.torrent 
Торрент: Зарегистрирован [ 2019-11-08 18:04 ] · 5594814575D8BEADD2BB0228F78C1CC77AE482D3

Скачать .torrent

Скачать

15 KB

Статус: проверено
Скачан: 0 раз
Размер: 1,46 GB
terms.php
Профиль [ЛС]
Показать сообщения:    

Текущее время: 11-Дек 22:20

Часовой пояс: UTC ± 0



Вы не можете начинать темы
Вы не можете отвечать на сообщения
Вы не можете редактировать свои сообщения
Вы не можете удалять свои сообщения
Вы не можете голосовать в опросах
Вы не можете прикреплять файлы к сообщениям
Вы можете скачивать файлы