Статистика раздачи
Размер:  745 MB   |    Зарегистрирован:  1 месяц 3 дня   |    Скачан:  0 раз

Полного источника не было: Никогда

 
     
 
 

Floyd ®

Пол:
Мужской
Стаж:
8 месяцев 14 дней
Сообщений:
1547

Призрачный патруль / Deadtectives
Страна: США
Жанр: ужасы, комедия, триллер
Год выпуска: 2018
Продолжительность: 01:32:03
Перевод: Профессиональный (многоголосый закадровый) iTunes
Субтитры: нет
Режиссер: Тони Уэст / Tony West
В ролях: Марта Игареда, Крис Гир, Тина Ивлев, Сеселия Антониетта, Хосе Тавира, Дэвид Ньюман, Пабло Кёстингер, Нури Бланко, Эмилио Савинни
Описание: Ведущие популярной телевизионной передачи «Призрачный патруль» отлично исполняют роли умелых охотников за привидениями и другой нечистью. Но так продолжается до тех пор, пока однажды герои не попадают в заброшенный особняк, полный тайн и секретов. Как же не опозорить себя перед фанатами передачи и самим не умереть от страха?...
Качество видео: WEB-DLRip
Формат видео: AVI
Видео: XviD 73, 656x272, (2,40:1), 23,976 fps, 931 Кбит/с, 8 бит, 0.21 bit/pixel
Аудио: Русский (АС3, 2 ch (Front: L R), 48,0 KHz, 192 Kbps)

MediaInfo

Общее
Полное имя : D:\Фильмы на трекер\Призрачный патруль (триллер, ужасы 2018 год).avi
Формат : AVI
Формат/Информация : Audio Video Interleave
Размер файла : 745 Мбайт
Продолжительность : 1 ч. 32 м.
Общий поток : 1132 Кбит/сек
Программа кодирования : VirtualDubMod 1.5.10.3 | www.virtualdub-fr.org || (build 2550/release)
Библиотека кодирования : VirtualDubMod build 2550/release
Видео
Идентификатор : 0
Формат : MPEG-4 Visual
Профиль формата : Advanced Simple@L5
Параметр BVOP формата : 2
Параметр QPel формата : Нет
Параметр GMC формата : Без точки перехода
Параметр матрицы формата : Выборочная
Идентификатор кодека : XVID
Идентификатор кодека/Подсказка : XviD
Продолжительность : 1 ч. 32 м.
Битрейт : 931 Кбит/сек
Ширина : 656 пикселей
Высота : 272 пикселя
Соотношение сторон : 2,40:1
Частота кадров : 23,976 (23976/1000) кадра/сек
Цветовое пространство : YUV
Субдискретизация насыщенности : 4:2:0
Битовая глубина : 8 бит
Тип развёртки : Прогрессивная
Метод сжатия : С потерями
Бит/(Пиксели*Кадры) : 0.218
Размер потока : 613 Мбайт (82%)
Библиотека кодирования : XviD 73
Аудио
Идентификатор : 1
Формат : AC-3
Формат/Информация : Audio Coding 3
Расширение режима : CM (complete main)
Параметр Endianness формата : Big
Идентификатор кодека : 2000
Продолжительность : 1 ч. 31 м.
Вид битрейта : Постоянный
Битрейт : 192 Кбит/сек
Каналы : 2 канала
Расположение каналов : Front: L R
Частота : 48,0 КГц
Частота кадров : 31,250 кадров/сек (1536 spf)
Метод сжатия : С потерями
Размер потока : 126 Мбайт (17%)
Выравнивание : Разделение по промежуткам
Продолжительность промежутка : 42 мс. (1,00 видеокадр)
Время предзагрузки промежутка : 500 мс.

Скриншот c названием фильма

Скриншоты

[cybertorrent.ru].t9059.torrent 
Торрент: Зарегистрирован [ 2019-11-08 18:10 ] · 656292A47A2221AD6E85D827CA4D6394BF00EE41

Скачать .torrent

Скачать

15 KB

Статус: проверено
Скачан: 0 раз
Размер: 745 MB
terms.php
Профиль [ЛС]
Показать сообщения:    

Текущее время: 11-Дек 22:23

Часовой пояс: UTC ± 0



Вы не можете начинать темы
Вы не можете отвечать на сообщения
Вы не можете редактировать свои сообщения
Вы не можете удалять свои сообщения
Вы не можете голосовать в опросах
Вы не можете прикреплять файлы к сообщениям
Вы можете скачивать файлы