Статистика раздачи
Размер:  2,05 GB   |    Зарегистрирован:  3 месяца 7 дней   |    Скачан:  0 раз

Полного источника не было: Никогда

 
   
 
 

lopster ®

Пол:
Не указан
Стаж:
3 месяца 7 дней
Сообщений:
612

Зависть богов Год выпуска: 2000
Жанр: Мелодрама
Продолжительность: 02:10:14
Режиссер: Владимир Меньшов
В ролях:
* Вера Алентова — Соня
* Анатолий Лобоцкий — Андрэ
* Александр Ворошило — Крапивин
* Владлен Давыдов — отец Сони
* Жерар Депардье — Бернар
* Марина Дюжева — Наташа
* Людмила Иванова — свекровь
* Юрий Колокольников — сын Сони
* Виктор Павлов — Вилен
* Ирина Скобцева — мать Сони
* Леонид Трушкин — Вадим
* Лариса Удовиченко — Ирина
* Александр Феклистов — Сергей
* Валерий Прохоров
-Описание: Действие фильма "Зависть богов" происходит в 1983 году в Москве. Два человека встретились здесь и полюбили друг друга – Соня и Андрэ. Соня – редактор на ТВ, у нее есть сын-подросток и муж – вполне успешный писатель. У Андрэ – журналиста-переводчика из Франции – тоже есть семья в Париже. Однако эта встреча перевернула их жизни. Для Сони, верной жены и вообще целомудренной женщины, теперь не существует ничего, кроме этой внезапно нахлынувшей страсти...-Доп. информация: DVD9
kinopoisk 7.118 (76)
Релиз: Кинозал.тв-Все раздачи фильма: Зависть богов
Качество: DVDRip
Формат: AVI
Видео кодек: DivX
Аудио кодек: AC3
Видео: 704x512 (1.38:1), 25 fps, XviD MPEG-4 ~1796 kbps avg, 0.20 bit/pixel
Аудио: 48 kHz, AC3 Dolby Digital, 3/2 (L,C,R,l,r) + LFE ch, ~448.00 kbps avg

MI

Код:Общее
Полное имя : C:\otkat\Видео\Zavist.bogov.2000.XviD.DVDRip.Kinozal.TV.avi
Формат : AVI
Формат/Информация : Audio Video Interleave
Профиль формата : OpenDML
Размер файла : 2,05 Гбайт
Продолжительность : 2 ч. 10 м.
Общий поток : 2251 Кбит/сек
Программа кодирования : VirtualDubModRus 1.5.10.2 (build 2542/release)
Библиотека кодирования : VirtualDubMod build 2542/release
Видео
Идентификатор : 0
Формат : MPEG-4 Visual
Профиль формата : Advanced Simple@L5
Параметр BVOP формата : 1
Параметр QPel формата : Нет
Параметр GMC формата : Без точки перехода
Параметр матрицы формата : Default (H.263)
Режим смешивания : Сжатый битовый поток
Идентификатор кодека : XVID
Идентификатор кодека/Подсказка : XviD
Продолжительность : 2 ч. 10 м.
Битрейт : 1791 Кбит/сек
Ширина : 704 пикселя
Высота : 512 пикселей
Соотношение сторон : 1,375
Частота кадров : 25,000 кадров/сек
Цветовое пространство : YUV
Субдискретизация насыщенности : 4:2:0
Битовая глубина : 8 бит
Тип развёртки : Прогрессивная
Метод сжатия : С потерями
Бит/(Пиксели*Кадры) : 0.199
Размер потока : 1,63 Гбайт (80%)
Библиотека кодирования : XviD 1.1.0 (UTC 2005-11-22)
Аудио
Идентификатор : 1
Формат : AC-3
Формат/Информация : Audio Coding 3
Расширение режима : CM (complete main)
Параметр Endianness формата : Big
Идентификатор кодека : 2000
Продолжительность : 2 ч. 10 м.
Вид битрейта : Постоянный
Битрейт : 448 Кбит/сек
Каналы : 6 каналов
Расположение каналов : Front: L C R, Side: L R, LFE
Частота : 48,0 КГц
Частота кадров : 31,250 кадров/сек (1536 spf)
Метод сжатия : С потерями
Размер потока : 417 Мбайт (20%)
Выравнивание : Разделение по промежуткам
Продолжительность промежутка : 40 мс. (1,00 видеокадр)
Время предзагрузки промежутка : 500 мс.

Скриншоты


[cybertorrent.ru].t91.torrent 
Торрент: Зарегистрирован [ 2018-02-15 13:57 ] · B2E7269BE42AC917B443F48E6BD8458385793D1E

Скачать .torrent

Скачать

11 KB

Статус: проверено
Скачан: 0 раз
Размер: 2,05 GB
Профиль [ЛС]
Показать сообщения:    

Текущее время: 23-Май 07:17

Часовой пояс: UTC ± 0



Вы не можете начинать темы
Вы не можете отвечать на сообщения
Вы не можете редактировать свои сообщения
Вы не можете удалять свои сообщения
Вы не можете голосовать в опросах
Вы не можете прикреплять файлы к сообщениям
Вы можете скачивать файлы