Статистика раздачи
Размер:  395 MB   |    Зарегистрирован:  3 месяца 7 дней   |    Скачан:  0 раз

Полного источника не было: Никогда

Личеров:  1  [  0 KB/s  ]  
 
   
 
 

norvil ®

Пол:
Не указан
Стаж:
3 месяца 8 дней
Сообщений:
185

«Форсаж» / Forsazh- Дата/Год выпуска: 2001
Страна: Россия
Жанр: Документальный, Авиация
Продолжительность: 00:49:35
Перевод: Не требуется
Русские субтитры: нет-Режиссер: Наталья Гугуева / Natalya Gugueva-Описание:Фильм о становлении советского авианесущего флота «Гром над палубой» упоминается легендарный летчик-ас Тимур Апакидзе (еще) - командир 100-го корабельно-истребительного авиаполка. О Тимуре Апакидзе и его воспитанниках, в прямом смысле спасших палубную авиацию, существует документальный фильм Натальи Гугуевой «Форсаж». В отличие от глуповатых, не понятно что пропагандирующих современных эрэфских околомилитаристских агиток, фильм ценен выдающейся личностью участника - Тимура Апакидзе, сумевшего в условиях Украины 1992 года сохранить человеческое достоинство, офицерскую честь и боеспособность полка.-Доп. информация: Все раздачи фильма
Это доработка данной раздачи.
Восстановлен правый канал звука. Исправлено смещение звука (200 мс).
Удалена чересстрочность (деинтералиасинг). Подрезаны края.
-качество: TVRip
формат: AVI
Видео: DivX, 544x416, 25.000 fps, 1024 Kbps
Аудио: MP3, 44.1 KHz, 1 channel, 80.0 Kbps-

Награды и номинации

Интересные факты:
При съёмках фильма применялась оригинальная техника для погашения вибраций на авианосце. По словам Гугуевой,
«разложив куски сала в пустые банки из-под консервов, мы поставили на них ножки штатива камеры,
и стали свидетелями чуда — вибрация исчезла

Liar_HT писал(а):
Можно сказать, что всегда со времён Хрущёва тема авианосцев носила сугубо политический характер.
Видимо, это отразилось и на судьбе фильма, который единожды был показан по телевидению в ночное время....
-
  • 2001 — Номинант на премии «Лучший неигровой фильм» и «Открытие года» Национальной кинематографической премии «Ника».-
  • 2001 — Номинант национальной премии кинематографической академии «Золотой орел» в номинации «Лучший документальный фильм».-
  • 2001 — Главный приз на фестивале «Сталкер» за лучший документальный фильм.-
  • 2001 — Приз зрительских симпатий, приз Союза кинематографистов РФ, приз Полномочного Представителя Президента России в УФО на Открытом всероссийском фестивале неигрового кино «Россия» (Екатеринбург).-
  • 2002 — приз «Бронзовый витязь» на Международном фестивале «Золотой витязь».-
  • 2002 — спецдиплом жюри Международного фестиваля «Послание к человеку» (Санкт-Петербург).-
  • 2002 — диплом Открытого российского конкурса на соискание национальной премии «Святая Анна».-
  • 2002 — диплом Общероссийского фестиваля мировоззренческого кино (Москва).
    -
    Фильм рассказывает о драматических событиях и судьбах военных лётчиков-истребителей: аэродром НИТКА в Саках (Украина) в годы распада СССР, повторное принятие офицерами присяги на верность Украине и обязательный ответ на вопрос: «Если интересы Украины потребуют, будешь ли ты воевать с Россией?», разводы в семьях по национальному признаку и небоевые потери.
    Большое количество сцен фильма снято съёмочной группой на палубе авианосца «Адмирал Кузнецов».
    Фильм снят при финансовой поддержке Министерства культуры Российской федерации.
    После гибели Тимуре Апакидзе, в мае 2005 года вышла вторая авторская работа Н. Гугуевой «Тимур. История последнего полёта».
    -

    Память о Т.Апакидзе

  • Т. А. Апакидзе похоронен 20 июля 2001 года на Троекуровском кладбище в Москве. 17 июля 2002 года на Троекуровском кладбище открыт памятник Герою России генерал-майору авиации Тимуру Апакидзе.
  • Имя Героя России Тимура Апакидзе присвоено одной из улиц города Остров в Псковской области, улице на которой он жил в городе Североморск-3 в Мурманской области, одной из улиц посёлка Новофёдоровка (бывший гарнизон Саки-4, Украина).
  • Имя Т. А. Апакидзе присвоено школе № 57 г. Мурманск.
  • На месте падения истребителя Су-33, который пилотировал Тимур Апакидзе, установлен памятный знак.
  • В городе Североморске Мурманской области на площади Сафонова установлен бюст Герою России Т. А. Апакидзе.
  • В посёлке Новофедоровка АР Крым (бывший гарнизон Саки-4) на Аллее героев установлен бюст Герою России Т. А. Апакидзе.
  • Открыты мемориальные доски посвященные Т. А. Апакидзе в Нахимовском училище, в Саках, Калининграде и Североморске-3.
  • Тимуру Апакидзе посвящена песня барда Константина Фролова «Поговори со мной о крыльях»
  • 17 июля 2013 года (ровно через 12 лет со дня гибели Тимура Апакидзе) на территории Комсомольского-на-Амуре авиационного завода открыт памятник палубному истребителю Су-33 в память о легендарном летчике. На самолёт нанесены портрет Тимура Апакидзе и бортовой номер машины — «70».
  • MediaInfo

    General
    Complete name : Форсаж (Наталья Гугурева) [2001, TVRip].avi
    Format : AVI
    Format/Info : Audio Video Interleave
    File size : 395 MiB
    Duration : 49mn 34s
    Overall bit rate : 1 114 Kbps
    Writing library : VirtualDub build 30009/release
    Video
    ID : 0
    Format : MPEG-4 Visual
    Format settings, BVOP : 1
    Format settings, QPel : No
    Format settings, GMC : No warppoints
    Format settings, Matrix : Default (H.263)
    Muxing mode : Packed bitstream
    Codec ID : DX50
    Codec ID/Hint : DivX 5
    Duration : 49mn 34s
    Bit rate : 1 024 Kbps
    Width : 544 pixels
    Height : 416 pixels
    Display aspect ratio : 4:3
    Frame rate : 25.000 fps
    Color space : YUV
    Chroma subsampling : 4:2:0
    Bit depth : 8 bits
    Scan type : Progressive
    Compression mode : Lossy
    Bits/(Pixel*Frame) : 0.181
    Stream size : 363 MiB (92%)
    Writing library : DivX 6.8.3-6.8.4 (UTC 2008-06-07)
    Audio
    ID : 1
    Format : MPEG Audio
    Format version : Version 1
    Format profile : Layer 3
    Codec ID : 55
    Codec ID/Hint : MP3
    Duration : 49mn 34s
    Bit rate mode : Constant
    Bit rate : 80.0 Kbps
    Channel(s) : 1 channel
    Sampling rate : 44.1 KHz
    Compression mode : Lossy
    Stream size : 28.3 MiB (7%)
    Alignment : Split accross interleaves
    Interleave, duration : 40 ms (1.00 video frame)
    Interleave, preload duration : 500 ms

    Скриншоты

    [cybertorrent.ru].t917.torrent 
    Торрент: Зарегистрирован [ 2018-02-15 22:25 ] · C3AC78CA01AA5C546B59FF3543022E5C4F633E0F

    Скачать .torrent

    Скачать

    16 KB

    Статус: проверено
    Скачан: 0 раз
    Размер: 395 MB
    Профиль [ЛС]
    Показать сообщения:    

    Текущее время: 23-Май 16:42

    Часовой пояс: UTC ± 0



    Вы не можете начинать темы
    Вы не можете отвечать на сообщения
    Вы не можете редактировать свои сообщения
    Вы не можете удалять свои сообщения
    Вы не можете голосовать в опросах
    Вы не можете прикреплять файлы к сообщениям
    Вы можете скачивать файлы