Статистика раздачи
Размер:  1,37 GB   |    Зарегистрирован:  3 месяца 12 дней   |    Скачан:  0 раз

Полного источника не было: Никогда

 
   
 
 

lopster ®

Пол:
Не указан
Стаж:
3 месяца 12 дней
Сообщений:
612

Квартирантка
Год выпуска: 2008
Жанр: комедийная мелодрама
Продолжительность: 00:45:55 + 00:44:45
Режиссер: Анна Фенченко, Наталья Глазкова
В ролях: Алина Сергеева, Сергей Горобченко, Екатерина Юдина, Марианна Шульц, Олег Филипчик, Перт Кислов, Андрей Лебедев-Описание: Простая школьная учительница Рита приезжает в Москву попытать счастья. Остановиться она собирается у своей подруги Людмилы, которая также как и она приехала сюда из маленького провинциального городка. Но Людмила после развода с мужем не живет по старому адресу, у нее одна проблема: бывший муж никак не соглашается на размен квартиры. Людмила решает убить двух зайцев сразу – пристроить подругу и насолить мужу. Таким образом, в квартире Олега появляется незнакомая квартирантка, которая сначало приходится совсем не по душе хозяину.-Доп. информация: DVD9
Качество видео: DVDRip- sample
Формат видео: AVI
Видео: 704x384 (1.83:1), 25 fps, XviD MPEG-4 ~1929 kbps avg, 0.29 bit/pixel
Аудио: 48 kHz, AC3 Dolby Digital, 2/0 (L,R) ch, ~192.00 kbps avg
Не повтор! Смотрим продолжительность и сверяем качество. Рип от 777, за, что ему спасибо!-Все раздачи фильма: Квартирантка

MI

Код:Общее
Полное имя : C:\otkat\Видео\Квартирантка\Kvartirantka.2008.O.DVDRip_777.avi\Kvartirantka.1.2008.O.DVDRip_777.avi
Формат : AVI
Формат/Информация : Audio Video Interleave
Размер файла : 700 Мбайт
Продолжительность : 45 м.
Общий поток : 2132 Кбит/сек
Программа кодирования : VirtualDubMod 1.5.10.2 (build 2540/release)
Библиотека кодирования : VirtualDubMod build 2540/release
Видео
Идентификатор : 0
Формат : MPEG-4 Visual
Профиль формата : Advanced Simple@L5
Параметр BVOP формата : 2
Параметр QPel формата : Нет
Параметр GMC формата : Без точки перехода
Параметр матрицы формата : Default (MPEG)
Режим смешивания : Сжатый битовый поток
Идентификатор кодека : XVID
Идентификатор кодека/Подсказка : XviD
Продолжительность : 45 м.
Битрейт : 1930 Кбит/сек
Ширина : 704 пикселя
Высота : 384 пикселя
Соотношение сторон : 1,85:1
Частота кадров : 25,000 кадров/сек
Цветовое пространство : YUV
Субдискретизация насыщенности : 4:2:0
Битовая глубина : 8 бит
Тип развёртки : Прогрессивная
Метод сжатия : С потерями
Бит/(Пиксели*Кадры) : 0.286
Размер потока : 634 Мбайт (91%)
Библиотека кодирования : XviD 1.2.0.dev47 (UTC 2006-11-01)
Аудио
Идентификатор : 1
Формат : AC-3
Формат/Информация : Audio Coding 3
Расширение режима : CM (complete main)
Параметр Endianness формата : Big
Идентификатор кодека : 2000
Продолжительность : 45 м.
Вид битрейта : Постоянный
Битрейт : 192 Кбит/сек
Каналы : 2 канала
Расположение каналов : Front: L R
Частота : 48,0 КГц
Частота кадров : 31,250 кадров/сек (1536 spf)
Метод сжатия : С потерями
Размер потока : 63,0 Мбайт (9%)
Выравнивание : Разделение по промежуткам
Продолжительность промежутка : 40 мс. (1,00 видеокадр)
Время предзагрузки промежутка : 500 мс.

Скриншоты

-
[cybertorrent.ru].t93.torrent 
Торрент: Зарегистрирован [ 2018-02-15 13:57 ] · 54B0E322ACA0D3C387AB942C6752CACF8B693671

Скачать .torrent

Скачать

14 KB

Статус: проверено
Скачан: 0 раз
Размер: 1,37 GB
Профиль [ЛС]
Показать сообщения:    

Текущее время: 28-Май 03:24

Часовой пояс: UTC ± 0



Вы не можете начинать темы
Вы не можете отвечать на сообщения
Вы не можете редактировать свои сообщения
Вы не можете удалять свои сообщения
Вы не можете голосовать в опросах
Вы не можете прикреплять файлы к сообщениям
Вы можете скачивать файлы