Статистика раздачи
Размер:  576 MB   |    Зарегистрирован:  7 месяцев 8 дней   |    Скачан:  0 раз

Полного источника не было: Никогда

 
   
 
 

NINJA ®

Пол:
Не указан
Стаж:
7 месяцев 8 дней
Сообщений:
84

That's Hot! Sizzling Bellydance Performances with Kaya & Sadie
Год выпуска: 2007
Страна: USA
Жанр: Performance, Bellydance
Продолжительность: 0:39:47
Сэмпл: https://yadi.sk/i/NyD6sd5f3JyZbi
Описание: Хмм, что я могу сказать об этом ... так ... если вы мужчина, вы можете пользоваться этим ... если вы женщина ... так ... вы можете пользоваться некоторыми, но не все это. Дамы ... некоторых это может быть охарактеризована только как открыто сексуальное ... это, безусловно, соответствует его названию, но это позор, чтобы Сэди нижних себя этот уровень. Ее танцевальный имеет гораздо более высокие стандарты, чем в Кайя (которые я думал не о том, что хорошо), но носит скудный костюмы и ах просто пришлось это сделать обратно согнуть и, что невероятно жесткий толчок деятельности бюстгальтер?
Я хотел свое первое регулярное вместе, но это очень в стиле кабаре.
Хм, узнать, что вы думаете ...
Kaya and Sadie are the Hottest New Sensation in the Bellydance World. This Extraordinary Duo Have Joined Forces, Resulting in a Unique Entertainment Experience Which Includes Elements of Belly Dance, Fantasy, and Theatrics
Tracks
1 Moon Over Ala Nar - Kaya & Sadie
2 Al Arasiyya - Kaya
3 Badawiyya's Teasing - Sadie
4 Side to Said - Kaya & Sadie
5 Eshtaktillak - Kaya
6 Sahra Saidi - Kaya & Sadie
7 Shake Time - Sadie
8 Raks Ayyoub - Kaya
Качество: DVDRip
Формат: AVI
Видео кодек: XviD
Аудио кодек: MP3
Видео: XVID 640 x 468 29.970FPS 1883kbs
Аудио: MPEG-1 Layer 3 48000Hz 128 kb/s tot , Joint Stereo

MediaInfo

Формат/Информация : Audio Video Interleave
Размер файла : 576 Мбайт
Продолжительность : 39 м. 47 с.
Общий поток : 2023 Кбит/сек
Программа кодирования : VirtualDubMod 1.5.10.2 (build 2540/release)
Библиотека кодирования : VirtualDubMod build 2540/release
Видео
Идентификатор : 0
Формат : MPEG-4 Visual
Профиль формата : Advanced Simple@L5
Параметр BVOP формата : 2
Параметр QPel формата : Нет
Параметр GMC формата : Без точки перехода
Параметр матрицы формата : Default (H.263)
Режим смешивания : Сжатый битовый поток
Идентификатор кодека : XVID
Идентификатор кодека/Подсказка : XviD
Продолжительность : 39 м. 47 с.
Битрейт : 1884 Кбит/сек
Ширина : 640 пикселей
Высота : 468 пикселей
Соотношение сторон : 4:3
Частота кадров : 29,970 (30000/1001) кадров/сек
Цветовое пространство : YUV
Субдискретизация насыщенности : 4:2:0
Битовая глубина : 8 бит
Тип развёртки : Прогрессивная
Метод сжатия : С потерями
Бит/(Пиксели*Кадры) : 0.210
Размер потока : 536 Мбайт (93%)
Библиотека кодирования : XviD 1.0.3 (UTC 2004-12-20)
Аудио
Идентификатор : 1
Формат : MPEG Audio
Версия формата : Version 1
Профиль формата : Layer 3
Режим : Joint stereo
Расширение режима : MS Stereo
Идентификатор кодека : 55
Идентификатор кодека/Подсказка : MP3
Продолжительность : 39 м. 47 с.
Вид битрейта : Постоянный
Битрейт : 128 Кбит/сек
Каналы : 2 канала
Частота : 48,0 КГц
Метод сжатия : С потерями
Размер потока : 36,4 Мбайт (6%)
Выравнивание : Соединение по промежуткам
Продолжительность промежутка : 33 мс. (1,00 видеокадр)
Время предзагрузки промежутка : 504 мс.

Скриншоты

[cybertorrent.ru].t937.torrent 
Торрент: Зарегистрирован [ 2018-02-15 22:25 ] · 34338AF6063C46AA014448FF2A3A5645BFB8DB0B

Скачать .torrent

Скачать

12 KB

Статус: проверено
Скачан: 0 раз
Размер: 576 MB
Профиль [ЛС]
Показать сообщения:    

Текущее время: 24-Сен 08:07

Часовой пояс: UTC ± 0



Вы не можете начинать темы
Вы не можете отвечать на сообщения
Вы не можете редактировать свои сообщения
Вы не можете удалять свои сообщения
Вы не можете голосовать в опросах
Вы не можете прикреплять файлы к сообщениям
Вы можете скачивать файлы
Torrents24.ru открытый BitTorrent Torrents24.pl открытый BitTorrent CyberTorrent.ru открытый BitTorrent BtList.ru рейтинг BitTorrent трекеров Яндекс.Метрика