Статистика раздачи
Размер:  1,46 GB   |    Зарегистрирован:  3 месяца 6 дней   |    Скачан:  0 раз

Полного источника не было: Никогда

 
   
 
 

Симка ®

Пол:
Не указан
Стаж:
3 месяца 6 дней
Сообщений:
376

Лицензия жить / К жизни пригоден / Ningen Gôkaku / Licence to Live
Год выпуска: 1998
Страна: Япония
Жанр: комедия, притча, драма
Продолжительность: 01:49:44
Перевод: Одноголосый закадровый liosaa
Субтитры: русские liosaa, английские
Режиссер: Киёси Куросава / Kiyoshi Kurosawa
В ролях: Хидэтоси Нисидзима, Кодзи Якусё, Ёрико Доугути, Рири, Сюн Сюгата, Рен Осуги, Сё Аикава, Кумико Асо
Описание: "Лицензия жить" -- возможно самый лирический и проникновенный фильм Куросавы -- про муки паренька, который очнулся после 10-летней комы. Он словно воскрес -- и теперь мается в попытках запустить жизнь заново... Однако судьбы его друзей и близких, пока он спал, ручейками разбежались в разные стороны -- и былую гармонию хрен вернёшь...
Куросава изображает жизнь и смерть как что-то неуловимое, что пришло ниоткуда и уходит в никуда... Ты словно просыпаешься однажды и понимаешь, что наука жизни сводится к сбору и складированию мусора, для имитации хоть какого-нибудь миропорядка. Но как ни крути, хлама скапливается так много, что чуть только ткнёшь -- и он обрушится на тебя, придавив подобно надгробию...

Доп. информация: перевод+звук+сведение=мои... мой 8-ой К.Куросава, перевод (в отличие от представленного ранее) ПОЛНЫЙ, со всеми табличками, надписями и центральной песней (форсированные субтитры на песню стоят первым номером), видео-рип оставил прежний... кто уже видел, пересмотрите -- узнаете много нового... один из глубочайших японских фильмов (да и не только японских, чо уж там)
*СЭМПЛ
*HDTVRip 720p (2.56 GB)
*Куросава Киёси в переводе *liosaa:
СТРАЖ ПРЕИСПОДНЕЙ (1992)
СНАДОБЬЕ (1997)
ХАРИЗМА (1999)
ПУСТЫЕ МИРАЖИ (1999)
СВЕТЛОЕ ЗАВТРА (2003) международная версия *Канны
СВЕТЛОЕ ЗАВТРА (2003) расширенная версия (иной финал)
ДОМ С ТАРАКАНАМИ (2005) театр ужасов Кадзуо Умэдзу
К БЕРЕГУ И ОБРАТНО (2015) NEW!!

Тип релиза: DVDRip
Контейнер: AVI
Видео: XviD, 704x384 (1.85:1), 23.976 fps, 1504 Kbps, 0.186
Аудио 1: 48 kHz, AC3 Dolby Digital, 2/0 (L,R) ch, 192 kbps (рус)
Аудио 2: 48 kHz, AC3 Dolby Digital, 2/0 (L,R) ch, 192 kbps (jap)
Формат субтитров: softsub (SSA/ASS)

MediaInfo

Формат : AVI
Формат/Информация : Audio Video Interleave
Размер файла : 1,46 Гбайт
Продолжительность : 1 ч. 49 м.
Общий поток : 1906 Кбит/сек
Программа кодирования : VirtualDubMod 1.5.10.2 (build 2540/release)
Библиотека кодирования : VirtualDubMod build 2540/release
Видео
Идентификатор : 0
Формат : MPEG-4 Visual
Профиль формата : Advanced Simple@L5
Параметр BVOP формата : 1
Параметр QPel формата : Нет
Параметр GMC формата : Без точки перехода
Параметр матрицы формата : Выборочная
Идентификатор кодека : XVID
Идентификатор кодека/Подсказка : XviD
Продолжительность : 1 ч. 49 м.
Битрейт : 1504 Кбит/сек
Ширина : 704 пикселя
Высота : 384 пикселя
Соотношение сторон : 1,85:1
Частота кадров : 23,976 (24000/1001) кадров/сек
Цветовое пространство : YUV
Субдискретизация насыщенности : 4:2:0
Битовая глубина : 8 бит
Тип развёртки : Прогрессивная
Метод сжатия : С потерями
Бит/(Пиксели*Кадры) : 0.186
Размер потока : 1,15 Гбайт (79%)
Библиотека кодирования : XviD 1.2.0.dev47 (UTC 2006-11-01)
Аудио #1
Идентификатор : 1
Формат : AC-3
Формат/Информация : Audio Coding 3
Режим : Dolby Digital
Параметр Endianness формата : Big
Идентификатор кодека : 2000
Продолжительность : 1 ч. 49 м.
Вид битрейта : Постоянный
Битрейт : 192 Кбит/сек
Каналы : 2 канала
Расположение каналов : Front: L R
Частота : 48,0 КГц
Частота кадров : 31,250 кадров/сек (1536 SPF)
Битовая глубина : 16 бит
Метод сжатия : С потерями
Размер потока : 151 Мбайт (10%)
Выравнивание : Разделение по промежуткам
Продолжительность промежутка : 33 мс. (1,00 видеокадр)
Время предзагрузки промежутка : 500 мс.
ServiceKind/String : Complete Main
Аудио #2
Идентификатор : 2
Формат : AC-3
Формат/Информация : Audio Coding 3
Параметр Endianness формата : Big
Идентификатор кодека : 2000
Продолжительность : 1 ч. 49 м.
Вид битрейта : Постоянный
Битрейт : 192 Кбит/сек
Каналы : 2 канала
Расположение каналов : Front: L R
Частота : 48,0 КГц
Частота кадров : 31,250 кадров/сек (1536 SPF)
Битовая глубина : 16 бит
Метод сжатия : С потерями
Размер потока : 151 Мбайт (10%)
Выравнивание : Разделение по промежуткам
Продолжительность промежутка : 33 мс. (1,00 видеокадр)
Время предзагрузки промежутка : 500 мс.
ServiceKind/String : Complete Main

Скриншоты

[cybertorrent.ru].t939.torrent 
Торрент: Зарегистрирован [ 2018-02-15 22:25 ] · 36F0D09C5338271A75C6CA56611A976D643EF327

Скачать .torrent

Скачать

15 KB

Статус: проверено
Скачан: 0 раз
Размер: 1,46 GB
Профиль [ЛС]
Показать сообщения:    

Текущее время: 22-Май 00:05

Часовой пояс: UTC ± 0



Вы не можете начинать темы
Вы не можете отвечать на сообщения
Вы не можете редактировать свои сообщения
Вы не можете удалять свои сообщения
Вы не можете голосовать в опросах
Вы не можете прикреплять файлы к сообщениям
Вы можете скачивать файлы