Статистика раздачи
Размер:  745 MB   |    Зарегистрирован:  3 месяца 6 дней   |    Скачан:  0 раз

Полного источника не было: Никогда

 
   
 
 

lopster ®

Пол:
Не указан
Стаж:
3 месяца 6 дней
Сообщений:
612

Четыре возраста любви Год выпуска: 2008
Жанр: Драма
Продолжительность: 01:37:18
Режиссер: Сергей Мокрицкий
В ролях: Роман Шмаков, Александра Гонтаренко, Станислав Лесной, Ольга Хохлова, Лия Ахеджакова, Игорь Ясулович, Елена Морозова, Алексей Серебряков, Юлия Рутберг, Наталья Суркова-Описание: Фильм в четырех новеллах, рассказывающий о разных духовных ипостасях любви, о наших современниках, которые несмотря на юный или преклонный возраст ищут и находят единственную любовь.
Новелла "Осень".
Новелла "Зима".
Новелла "Весна".
Новелла "Лето".
-Доп. информация: DVD9
Все раздачи фильма: Четыре возраста любви
Качество: DVDRip- sample
Формат: AVI
Видео кодек: XviD
Аудио кодек: MP3
Видео: 656x352 (1.86:1), 25 fps, XviD build 47 ~932 kbps avg, 0.16 bit/pixel
Аудио: 48 kHz, MPEG Layer 3, 2 ch, ~128.00 kbps avg- -

MI

Код:Общее
Полное имя : C:\otkat\Видео\Четыре возраста любви\4.vozrasta.lubvi.2008.avi
Формат : AVI
Формат/Информация : Audio Video Interleave
Размер файла : 745 Мбайт
Продолжительность : 1 ч. 37 м.
Общий поток : 1070 Кбит/сек
Программа кодирования : VirtualDubMod 1.5.10.2 (build 2540/release)
Библиотека кодирования : VirtualDubMod build 2540/release
Видео
Идентификатор : 0
Формат : MPEG-4 Visual
Профиль формата : Advanced Simple@L5
Параметр BVOP формата : 1
Параметр QPel формата : Нет
Параметр GMC формата : Без точки перехода
Параметр матрицы формата : Default (H.263)
Идентификатор кодека : XVID
Идентификатор кодека/Подсказка : XviD
Продолжительность : 1 ч. 37 м.
Битрейт : 933 Кбит/сек
Ширина : 656 пикселей
Высота : 352 пикселя
Соотношение сторон : 1,85:1
Частота кадров : 25,000 кадров/сек
Цветовое пространство : YUV
Субдискретизация насыщенности : 4:2:0
Битовая глубина : 8 бит
Тип развёртки : Прогрессивная
Метод сжатия : С потерями
Бит/(Пиксели*Кадры) : 0.162
Размер потока : 649 Мбайт (87%)
Библиотека кодирования : XviD 1.2.0.dev47 (UTC 2006-11-01)
Аудио
Идентификатор : 1
Формат : MPEG Audio
Версия формата : Version 1
Профиль формата : Layer 3
Идентификатор кодека : 55
Идентификатор кодека/Подсказка : MP3
Продолжительность : 1 ч. 37 м.
Вид битрейта : Постоянный
Битрейт : 128 Кбит/сек
Каналы : 2 канала
Частота : 48,0 КГц
Метод сжатия : С потерями
Размер потока : 89,1 Мбайт (12%)
Выравнивание : Соединение по промежуткам
Продолжительность промежутка : 40 мс. (1,00 видеокадр)
Время предзагрузки промежутка : 504 мс.
Библиотека кодирования : LAME3.97
Настройки программы : -m s -V 4 -q 2 -lowpass 17 -b 128

Скриншоты

-
[cybertorrent.ru].t94.torrent 
Торрент: Зарегистрирован [ 2018-02-15 13:57 ] · 1D25DC3989DDEA40404836A879057A477632C734

Скачать .torrent

Скачать

15 KB

Статус: проверено
Скачан: 0 раз
Размер: 745 MB
Профиль [ЛС]
Показать сообщения:    

Текущее время: 21-Май 18:59

Часовой пояс: UTC ± 0



Вы не можете начинать темы
Вы не можете отвечать на сообщения
Вы не можете редактировать свои сообщения
Вы не можете удалять свои сообщения
Вы не можете голосовать в опросах
Вы не можете прикреплять файлы к сообщениям
Вы можете скачивать файлы