Статистика раздачи
Размер:  4,21 GB   |    Зарегистрирован:  3 месяца 6 дней   |    Скачан:  0 раз

Полного источника не было: Никогда

 
   
 
 

FibYar ®

Пол:
Не указан
Стаж:
3 месяца 6 дней
Сообщений:
227

По Волне Моей Памяти (Олег Нестеров) ч.1- Год выпуска: 2008
Страна: Россия
Жанр: Телепередача
Продолжительность: 8 передач по ~00:51:00
Режиссер: Канал "ВРЕМЯ"
В ролях: Олег Нестеров
Описание: Авторская программа Олега Нестерова. Это - непринужденный разговор о любимой музыке, воспитавшей несколько поколений - с ее создателями. Те люди, которые формировали музыкальное мировоззрение целой страны расскажут нам о своей работе, интересных историях, связанных с самыми известными произведениями и поделятся планами на будущее.-Список передач: Людмила Рюмина. Наталья Штурм. Павел Кашин. Сергей Беликов. Стас Намин (ч.1). Сергей Захаров. Татьяна Анциферова. Татьяна Литвиненко ("Квартал").-Качество: TVRip Формат: AVI
Видео кодек: XviD Аудио кодек: MP3
Видео: 624x466 ~1370 кбит/с (Qf=0.190)
Аудио: 128 кбит/с CBR

MediaInfo

Общее
Полное имя : F:\cfl\przlv_b\Nesterov_1\Ludmila Ryumina.avi
Формат : AVI
Формат/Информация : Audio Video Interleave
Размер файла : 565 Мбайт
Продолжительность : 52 м. 33 с.
Общий поток : 1504 Кбит/сек
Программа кодирования : VirtualDubMod 1.5.10.2 (build 2540/release)
Библиотека кодирования : VirtualDubMod build 2540/release
Видео
Идентификатор : 0
Формат : MPEG-4 Visual
Профиль формата : Advanced Simple@L5
Настройки формата : BVOP2
Параметр BVOP формата : 2
Параметр QPel формата : Нет
Параметр GMC формата : Без точки перехода
Параметр матрицы формата : Default (MPEG)
Идентификатор кодека : XVID
Идентификатор кодека/Подсказка : XviD
Продолжительность : 52 м. 33 с.
Битрейт : 1366 Кбит/сек
Ширина : 624 пикселя
Высота : 464 пикселя
Соотношение сторон : 4:3
Частота кадров : 25,000 кадров/сек
Цветовое пространство : YUV
Субдискретизация насыщенности : 4:2:0
Битовая глубина : 8 бит
Тип развёртки : Прогрессивная
Метод сжатия : С потерями
Бит/(Пиксели*Кадры) : 0.189
Размер потока : 513 Мбайт (91%)
Библиотека кодирования : XviD 1.2.0.dev47 (UTC 2006-11-01)
Аудио
Идентификатор : 1
Формат : MPEG Audio
Версия формата : Version 1
Профиль формата : Layer 3
Идентификатор кодека : 55
Идентификатор кодека/Подсказка : MP3
Продолжительность : 52 м. 33 с.
Вид битрейта : Постоянный
Битрейт : 128 Кбит/сек
Каналы : 2 канала
Частота : 48,0 КГц
Метод сжатия : С потерями
Задержка видео : 48 мс.
Размер потока : 48,1 Мбайт (9%)
Выравнивание : Соединение по промежуткам
Продолжительность промежутка : 40 мс. (1,00 видеокадр)
Время предзагрузки промежутка : 504 мс.
Общее
Полное имя : F:\cfl\przlv_b\Nesterov_1\Natalya Shturm.avi
Формат : AVI
Формат/Информация : Audio Video Interleave
Размер файла : 546 Мбайт
Продолжительность : 51 м. 15 с.
Общий поток : 1488 Кбит/сек
Программа кодирования : VirtualDubMod 1.5.10.2 (build 2540/release)
Библиотека кодирования : VirtualDubMod build 2540/release
Видео
Идентификатор : 0
Формат : MPEG-4 Visual
Профиль формата : Advanced Simple@L5
Настройки формата : BVOP2
Параметр BVOP формата : 2
Параметр QPel формата : Нет
Параметр GMC формата : Без точки перехода
Параметр матрицы формата : Default (MPEG)
Идентификатор кодека : XVID
Идентификатор кодека/Подсказка : XviD
Продолжительность : 51 м. 15 с.
Битрейт : 1350 Кбит/сек
Ширина : 624 пикселя
Высота : 458 пикселей
Соотношение сторон : 4:3
Частота кадров : 25,000 кадров/сек
Цветовое пространство : YUV
Субдискретизация насыщенности : 4:2:0
Битовая глубина : 8 бит
Тип развёртки : Прогрессивная
Метод сжатия : С потерями
Бит/(Пиксели*Кадры) : 0.189
Размер потока : 495 Мбайт (91%)
Библиотека кодирования : XviD 1.2.0.dev47 (UTC 2006-11-01)
Аудио
Идентификатор : 1
Формат : MPEG Audio
Версия формата : Version 1
Профиль формата : Layer 3
Идентификатор кодека : 55
Идентификатор кодека/Подсказка : MP3
Продолжительность : 51 м. 15 с.
Вид битрейта : Постоянный
Битрейт : 128 Кбит/сек
Каналы : 2 канала
Частота : 48,0 КГц
Метод сжатия : С потерями
Задержка видео : 48 мс.
Размер потока : 46,9 Мбайт (9%)
Выравнивание : Соединение по промежуткам
Продолжительность промежутка : 40 мс. (1,00 видеокадр)
Время предзагрузки промежутка : 504 мс.
Общее
Полное имя : F:\cfl\przlv_b\Nesterov_1\Pavel Kashin.avi
Формат : AVI
Формат/Информация : Audio Video Interleave
Размер файла : 556 Мбайт
Продолжительность : 51 м. 23 с.
Общий поток : 1513 Кбит/сек
Программа кодирования : VirtualDubMod 1.5.10.2 (build 2540/release)
Библиотека кодирования : VirtualDubMod build 2540/release
Видео
Идентификатор : 0
Формат : MPEG-4 Visual
Профиль формата : Advanced Simple@L5
Настройки формата : BVOP2
Параметр BVOP формата : 2
Параметр QPel формата : Нет
Параметр GMC формата : Без точки перехода
Параметр матрицы формата : Default (MPEG)
Идентификатор кодека : XVID
Идентификатор кодека/Подсказка : XviD
Продолжительность : 51 м. 23 с.
Битрейт : 1375 Кбит/сек
Ширина : 624 пикселя
Высота : 466 пикселей
Соотношение сторон : 4:3
Частота кадров : 25,000 кадров/сек
Цветовое пространство : YUV
Субдискретизация насыщенности : 4:2:0
Битовая глубина : 8 бит
Тип развёртки : Прогрессивная
Метод сжатия : С потерями
Бит/(Пиксели*Кадры) : 0.189
Размер потока : 505 Мбайт (91%)
Библиотека кодирования : XviD 1.2.0.dev47 (UTC 2006-11-01)
Аудио
Идентификатор : 1
Формат : MPEG Audio
Версия формата : Version 1
Профиль формата : Layer 3
Идентификатор кодека : 55
Идентификатор кодека/Подсказка : MP3
Продолжительность : 51 м. 23 с.
Вид битрейта : Постоянный
Битрейт : 128 Кбит/сек
Каналы : 2 канала
Частота : 48,0 КГц
Метод сжатия : С потерями
Задержка видео : 48 мс.
Размер потока : 47,1 Мбайт (8%)
Выравнивание : Соединение по промежуткам
Продолжительность промежутка : 40 мс. (1,00 видеокадр)
Время предзагрузки промежутка : 504 мс.
Общее
Полное имя : F:\cfl\przlv_b\Nesterov_1\S.Belikov.avi
Формат : AVI
Формат/Информация : Audio Video Interleave
Размер файла : 561 Мбайт
Продолжительность : 52 м. 8 с.
Общий поток : 1505 Кбит/сек
Программа кодирования : VirtualDubMod 1.5.10.2 (build 2540/release)
Библиотека кодирования : VirtualDubMod build 2540/release
Видео
Идентификатор : 0
Формат : MPEG-4 Visual
Профиль формата : Advanced Simple@L5
Настройки формата : BVOP2
Параметр BVOP формата : 2
Параметр QPel формата : Нет
Параметр GMC формата : Без точки перехода
Параметр матрицы формата : Default (MPEG)
Идентификатор кодека : XVID
Идентификатор кодека/Подсказка : XviD
Продолжительность : 52 м. 8 с.
Битрейт : 1367 Кбит/сек
Ширина : 624 пикселя
Высота : 464 пикселя
Соотношение сторон : 4:3
Частота кадров : 25,000 кадров/сек
Цветовое пространство : YUV
Субдискретизация насыщенности : 4:2:0
Битовая глубина : 8 бит
Тип развёртки : Прогрессивная
Метод сжатия : С потерями
Бит/(Пиксели*Кадры) : 0.189
Размер потока : 510 Мбайт (91%)
Библиотека кодирования : XviD 1.2.0.dev47 (UTC 2006-11-01)
Аудио
Идентификатор : 1
Формат : MPEG Audio
Версия формата : Version 1
Профиль формата : Layer 3
Идентификатор кодека : 55
Идентификатор кодека/Подсказка : MP3
Продолжительность : 52 м. 8 с.
Вид битрейта : Постоянный
Битрейт : 128 Кбит/сек
Каналы : 2 канала
Частота : 48,0 КГц
Метод сжатия : С потерями
Задержка видео : 48 мс.
Размер потока : 47,7 Мбайт (9%)
Выравнивание : Соединение по промежуткам
Продолжительность промежутка : 40 мс. (1,00 видеокадр)
Время предзагрузки промежутка : 504 мс.
Общее
Полное имя : F:\cfl\przlv_b\Nesterov_1\S.Namin.p.1.avi
Формат : AVI
Формат/Информация : Audio Video Interleave
Размер файла : 453 Мбайт
Продолжительность : 48 м. 21 с.
Общий поток : 1309 Кбит/сек
Программа кодирования : VirtualDubMod 1.5.10.2 (build 2540/release)
Библиотека кодирования : VirtualDubMod build 2540/release
Видео
Идентификатор : 0
Формат : MPEG-4 Visual
Профиль формата : Advanced Simple@L5
Настройки формата : BVOP2
Параметр BVOP формата : 2
Параметр QPel формата : Нет
Параметр GMC формата : Без точки перехода
Параметр матрицы формата : Default (MPEG)
Идентификатор кодека : XVID
Идентификатор кодека/Подсказка : XviD
Продолжительность : 48 м. 21 с.
Битрейт : 1172 Кбит/сек
Ширина : 624 пикселя
Высота : 400 пикселей
Соотношение сторон : 16:10
Частота кадров : 25,000 кадров/сек
Цветовое пространство : YUV
Субдискретизация насыщенности : 4:2:0
Битовая глубина : 8 бит
Тип развёртки : Прогрессивная
Метод сжатия : С потерями
Бит/(Пиксели*Кадры) : 0.188
Размер потока : 405 Мбайт (89%)
Библиотека кодирования : XviD 1.1.2 (UTC 2006-11-01)
Аудио
Идентификатор : 1
Формат : MPEG Audio
Версия формата : Version 1
Профиль формата : Layer 3
Настройки формата : Joint stereo
Режим : Joint stereo
Идентификатор кодека : 55
Идентификатор кодека/Подсказка : MP3
Продолжительность : 48 м. 21 с.
Вид битрейта : Постоянный
Битрейт : 128 Кбит/сек
Каналы : 2 канала
Частота : 48,0 КГц
Метод сжатия : С потерями
Задержка видео : 48 мс.
Размер потока : 44,3 Мбайт (10%)
Выравнивание : Соединение по промежуткам
Продолжительность промежутка : 40 мс. (1,00 видеокадр)
Время предзагрузки промежутка : 504 мс.
Общее
Полное имя : F:\cfl\przlv_b\Nesterov_1\Sergej Zaharov.avi
Формат : AVI
Формат/Информация : Audio Video Interleave
Размер файла : 566 Мбайт
Продолжительность : 52 м. 25 с.
Общий поток : 1511 Кбит/сек
Программа кодирования : VirtualDubMod 1.5.10.2 (build 2540/release)
Библиотека кодирования : VirtualDubMod build 2540/release
Видео
Идентификатор : 0
Формат : MPEG-4 Visual
Профиль формата : Advanced Simple@L5
Настройки формата : BVOP2
Параметр BVOP формата : 2
Параметр QPel формата : Нет
Параметр GMC формата : Без точки перехода
Параметр матрицы формата : Default (MPEG)
Идентификатор кодека : XVID
Идентификатор кодека/Подсказка : XviD
Продолжительность : 52 м. 25 с.
Битрейт : 1373 Кбит/сек
Ширина : 624 пикселя
Высота : 466 пикселей
Соотношение сторон : 4:3
Частота кадров : 25,000 кадров/сек
Цветовое пространство : YUV
Субдискретизация насыщенности : 4:2:0
Битовая глубина : 8 бит
Тип развёртки : Прогрессивная
Метод сжатия : С потерями
Бит/(Пиксели*Кадры) : 0.189
Размер потока : 515 Мбайт (91%)
Библиотека кодирования : XviD 1.2.0.dev47 (UTC 2006-11-01)
Аудио
Идентификатор : 1
Формат : MPEG Audio
Версия формата : Version 1
Профиль формата : Layer 3
Идентификатор кодека : 55
Идентификатор кодека/Подсказка : MP3
Продолжительность : 52 м. 25 с.
Вид битрейта : Постоянный
Битрейт : 128 Кбит/сек
Каналы : 2 канала
Частота : 48,0 КГц
Метод сжатия : С потерями
Задержка видео : 48 мс.
Размер потока : 48,0 Мбайт (8%)
Выравнивание : Соединение по промежуткам
Продолжительность промежутка : 40 мс. (1,00 видеокадр)
Время предзагрузки промежутка : 504 мс.
Общее
Полное имя : F:\cfl\przlv_b\Nesterov_1\T.Antsiferova.avi
Формат : AVI
Формат/Информация : Audio Video Interleave
Размер файла : 545 Мбайт
Продолжительность : 51 м. 9 с.
Общий поток : 1490 Кбит/сек
Программа кодирования : VirtualDubMod 1.5.10.2 (build 2540/release)
Библиотека кодирования : VirtualDubMod build 2540/release
Видео
Идентификатор : 0
Формат : MPEG-4 Visual
Профиль формата : Advanced Simple@L5
Настройки формата : BVOP2
Параметр BVOP формата : 2
Параметр QPel формата : Нет
Параметр GMC формата : Без точки перехода
Параметр матрицы формата : Default (MPEG)
Идентификатор кодека : XVID
Идентификатор кодека/Подсказка : XviD
Продолжительность : 51 м. 9 с.
Битрейт : 1352 Кбит/сек
Ширина : 624 пикселя
Высота : 458 пикселей
Соотношение сторон : 4:3
Частота кадров : 25,000 кадров/сек
Цветовое пространство : YUV
Субдискретизация насыщенности : 4:2:0
Битовая глубина : 8 бит
Тип развёртки : Прогрессивная
Метод сжатия : С потерями
Бит/(Пиксели*Кадры) : 0.189
Размер потока : 495 Мбайт (91%)
Библиотека кодирования : XviD 1.2.0.dev47 (UTC 2006-11-01)
Аудио
Идентификатор : 1
Формат : MPEG Audio
Версия формата : Version 1
Профиль формата : Layer 3
Идентификатор кодека : 55
Идентификатор кодека/Подсказка : MP3
Продолжительность : 51 м. 9 с.
Вид битрейта : Постоянный
Битрейт : 128 Кбит/сек
Каналы : 2 канала
Частота : 48,0 КГц
Метод сжатия : С потерями
Задержка видео : 48 мс.
Размер потока : 46,8 Мбайт (9%)
Выравнивание : Соединение по промежуткам
Продолжительность промежутка : 40 мс. (1,00 видеокадр)
Время предзагрузки промежутка : 504 мс.
Общее
Полное имя : F:\cfl\przlv_b\Nesterov_1\T.Litvinenko.'Kvartal'.avi
Формат : AVI
Формат/Информация : Audio Video Interleave
Размер файла : 522 Мбайт
Продолжительность : 48 м. 22 с.
Общий поток : 1510 Кбит/сек
Программа кодирования : VirtualDubMod 1.5.10.2 (build 2540/release)
Библиотека кодирования : VirtualDubMod build 2540/release
Видео
Идентификатор : 0
Формат : MPEG-4 Visual
Профиль формата : Advanced Simple@L5
Настройки формата : BVOP2
Параметр BVOP формата : 2
Параметр QPel формата : Нет
Параметр GMC формата : Без точки перехода
Параметр матрицы формата : Default (MPEG)
Идентификатор кодека : XVID
Идентификатор кодека/Подсказка : XviD
Продолжительность : 48 м. 22 с.
Битрейт : 1372 Кбит/сек
Ширина : 624 пикселя
Высота : 466 пикселей
Соотношение сторон : 4:3
Частота кадров : 25,000 кадров/сек
Цветовое пространство : YUV
Субдискретизация насыщенности : 4:2:0
Битовая глубина : 8 бит
Тип развёртки : Прогрессивная
Метод сжатия : С потерями
Бит/(Пиксели*Кадры) : 0.189
Размер потока : 475 Мбайт (91%)
Библиотека кодирования : XviD 1.2.0.dev47 (UTC 2006-11-01)
Аудио
Идентификатор : 1
Формат : MPEG Audio
Версия формата : Version 1
Профиль формата : Layer 3
Идентификатор кодека : 55
Идентификатор кодека/Подсказка : MP3
Продолжительность : 48 м. 22 с.
Вид битрейта : Постоянный
Битрейт : 128 Кбит/сек
Каналы : 2 канала
Частота : 48,0 КГц
Метод сжатия : С потерями
Задержка видео : 48 мс.
Размер потока : 44,3 Мбайт (8%)
Выравнивание : Соединение по промежуткам
Продолжительность промежутка : 40 мс. (1,00 видеокадр)
Время предзагрузки промежутка : 504 мс.

Скриншоты

Все передачи:

По Волне Моей Памяти (Олег Нестеров) ч.1
По Волне Моей Памяти (Олег Нестеров) ч.2
По Волне Моей Памяти (Олег Нестеров) ч.3
По Волне Моей Памяти (Олег Нестеров) ч.4
По Волне Моей Памяти (Олег Нестеров) ч.5
По Волне Моей Памяти (Олег Нестеров) ч.6
По Волне Моей Памяти (Олег Нестеров) ч.7
По Волне Моей Памяти (Олег Нестеров) ч.8
По Волне Моей Памяти (Олег Нестеров) ч.9
По Волне Моей Памяти (Олег Нестеров) ч.10
По Волне Моей Памяти (Олег Нестеров) ч.11
По Волне Моей Памяти (Олег Нестеров) ч.12
По Волне Моей Памяти (Олег Нестеров) ч.13
По Волне Моей Памяти (Олег Нестеров) ч.14
По Волне Моей Памяти (Олег Нестеров) ч.15
По Волне Моей Памяти (Олег Нестеров) ч.16
По Волне Моей Памяти (Олег Нестеров) ч.17
По Волне Моей Памяти (Олег Нестеров) ч.18
По Волне Моей Памяти (Олег Нестеров) ч.19
По Волне Моей Памяти (Олег Нестеров) ч.20
По Волне Моей Памяти (Олег Нестеров) ч.21
По Волне Моей Памяти (Олег Нестеров) ч.22
По Волне Моей Памяти (Олег Нестеров) ч.23
По Волне Моей Памяти (Олег Нестеров) ч.24
По Волне Моей Памяти (Олег Нестеров) ч.25
По Волне Моей Памяти (Олег Нестеров) ч.26
По Волне Моей Памяти (Олег Нестеров) ч.27
По Волне Моей Памяти (Олег Нестеров) ч.28
По Волне Моей Памяти (Олег Нестеров) ч.29
По Волне Моей Памяти (Олег Нестеров) ч.30
По Волне Моей Памяти (Олег Нестеров) ч.31
По Волне Моей Памяти (Олег Нестеров) ч.32
По Волне Моей Памяти (Олег Нестеров) ч.33
По Волне Моей Памяти (Олег Нестеров) ч.34
По Волне Моей Памяти (Олег Нестеров) ч.35
По Волне Моей Памяти (Олег Нестеров) ч.36
По Волне Моей Памяти (Олег Нестеров) ч.37
По Волне Моей Памяти (Олег Нестеров) ч.38
По Волне Моей Памяти (Олег Нестеров) ч.39
По Волне Моей Памяти (Олег Нестеров) ч.40
Давид Тухманов. По Волне Моей Памяти
[cybertorrent.ru].t942.torrent 
Торрент: Зарегистрирован [ 2018-02-15 22:25 ] · 24C625BCE1315ADD2FCC23E2D56363EA6A82F1D2

Скачать .torrent

Скачать

22 KB

Статус: проверено
Скачан: 0 раз
Размер: 4,21 GB
Профиль [ЛС]
Показать сообщения:    

Текущее время: 22-Май 00:18

Часовой пояс: UTC ± 0



Вы не можете начинать темы
Вы не можете отвечать на сообщения
Вы не можете редактировать свои сообщения
Вы не можете удалять свои сообщения
Вы не можете голосовать в опросах
Вы не можете прикреплять файлы к сообщениям
Вы можете скачивать файлы