Статистика раздачи
Размер:  745 MB   |    Зарегистрирован:  3 месяца 7 дней   |    Скачан:  0 раз

Полного источника не было: Никогда

 
   
 
 

lopster ®

Пол:
Не указан
Стаж:
3 месяца 7 дней
Сообщений:
612

Открытое пространство Год выпуска: 2007
Жанр: Триллер, драма
Продолжительность: 01:22:12

Режиссер: Денис Нейманд
В ролях: Андрей Чадов, Юрий Колокольников, Егор Томошевский, Анна Слю, Юрий Оськин, Алексей Федькин-Описание: Три молодых героя заброшены в тайгу, их возвращения не ждут, но знают ли они об этом? Рядом только строгий надсмотрщик-проводник, но куда он ведёт ребят? Удастся ли им выбраться из этой ловушки?-Смогут ли они остаться друзьями, когда все маски сброшены и вокруг лишь бесконечная череда равнодушных деревьев? Оказывается, тайга лучшее место для сведения счетов.-Она раскрывает многие тайны и обнажает чувства. Но какой свободы хотят на самом деле герои?..-Доп. информация: DVD9
Внимание: Присутствует ненормативная лексика!
Все раздачи фильма: Открытое пространство
Качество: DVDRip- sample
Формат: AVI
Видео кодек: XviD
Аудио кодек: MP3
Видео: 688x384 (1.79:1), 25 fps, XviD build 47 ~1128 kbps avg, 0.17 bit/pixel
Аудио: 48 kHz, MPEG Layer 3, 2 ch, ~128.00 kbps avg
- -

MI

Код:Общее
Полное имя : C:\otkat\Видео\Открытое пространство\Otkritoe.prostranstvo.2007.avi
Формат : AVI
Формат/Информация : Audio Video Interleave
Размер файла : 745 Мбайт
Продолжительность : 1 ч. 22 м.
Общий поток : 1267 Кбит/сек
Программа кодирования : VirtualDubMod 1.5.10.2 (build 2540/release)
Библиотека кодирования : VirtualDubMod build 2540/release
Видео
Идентификатор : 0
Формат : MPEG-4 Visual
Профиль формата : Advanced Simple@L5
Параметр BVOP формата : 1
Параметр QPel формата : Нет
Параметр GMC формата : Без точки перехода
Параметр матрицы формата : Default (H.263)
Идентификатор кодека : XVID
Идентификатор кодека/Подсказка : XviD
Продолжительность : 1 ч. 22 м.
Битрейт : 1129 Кбит/сек
Ширина : 688 пикселей
Высота : 384 пикселя
Соотношение сторон : 16:9
Частота кадров : 25,000 кадров/сек
Цветовое пространство : YUV
Субдискретизация насыщенности : 4:2:0
Битовая глубина : 8 бит
Тип развёртки : Прогрессивная
Метод сжатия : С потерями
Бит/(Пиксели*Кадры) : 0.171
Размер потока : 664 Мбайт (89%)
Библиотека кодирования : XviD 1.2.0.dev47 (UTC 2006-11-01)
Аудио
Идентификатор : 1
Формат : MPEG Audio
Версия формата : Version 1
Профиль формата : Layer 3
Идентификатор кодека : 55
Идентификатор кодека/Подсказка : MP3
Продолжительность : 1 ч. 22 м.
Вид битрейта : Постоянный
Битрейт : 128 Кбит/сек
Каналы : 2 канала
Частота : 48,0 КГц
Метод сжатия : С потерями
Размер потока : 75,3 Мбайт (10%)
Выравнивание : Соединение по промежуткам
Продолжительность промежутка : 40 мс. (1,00 видеокадр)
Время предзагрузки промежутка : 504 мс.
Библиотека кодирования : LAME3.97
Настройки программы : -m s -V 4 -q 2 -lowpass 17 -b 128

Скриншоты


-
[cybertorrent.ru].t95.torrent 
Торрент: Зарегистрирован [ 2018-02-15 13:57 ] · 9C15BD6647F339223F251D9FE28E0151D4FC7B3A

Скачать .torrent

Скачать

15 KB

Статус: проверено
Скачан: 0 раз
Размер: 745 MB
Профиль [ЛС]
Показать сообщения:    

Текущее время: 23-Май 07:17

Часовой пояс: UTC ± 0



Вы не можете начинать темы
Вы не можете отвечать на сообщения
Вы не можете редактировать свои сообщения
Вы не можете удалять свои сообщения
Вы не можете голосовать в опросах
Вы не можете прикреплять файлы к сообщениям
Вы можете скачивать файлы